Ссылка на приватное зеркало нашего сайта всего за 1$. Внимание количество ограничено!!!

2 сезон

iTunes

1 сезон

1

iTunes

iTunes

iTunes

1 сезон

RePack

30

ИГРА 18+

pack

ВАЖНО

!!Акция!!

Alien_RageХит недели

RePack

MK11
pack

Забери бонус

RePack

jed

!!Акция!!

Alien_Rage

RePack

fifa19

RePack

Assassins Creed: Odyssey

RePack

NEED FOR SPEED™ PAYBACK

4 сезон

9 сезон

Бесстыжие 9 сезон

Все сериалы

все сериалы на PB.wtf

RePack

FAR CRY 5
  

Майкл Джексон: Лунная походка / Michael Jackson: Moonwalker (Джерри Крамер, Джим Блэшфилд, Колин Чилверс) [1988, Фантастика, фэнтези, семейный, мюзикл, LDRip > DVD5 (Custom)] [AVO] (А.Гаврилов) pb.wtf

Майкл Джексон: Лунная походка через торрент pb.wtf

Размер: 3.91 GB | Добавлен: 3 мес. 2 д. назад | Торрент скачан:18 раз
Скачать  

19-07-2020 12:50 Майкл Джексон: Лунная походка Скачать торрент  

Майкл Джексон: Лунная походка / Michael Jackson: Moonwalker
Год выпуска: 1988
Страна: США
Жанр: Фантастика, фэнтези, семейный, мюзикл
Продолжительность: 01:29:44
Перевод: Авторский (одноголосый закадровый) Андрей Гаврилов
Режиссёры: Джерри Крамер / Jerry Kramer, Джим Блэшфилд / Jim Blashfield, Колин Чилверс / Colin Chilvers

В ролях: Майкл Джексон / Michael Jackson, Хаким Абдул-Самад / Hakeem Abdul-Samad, Хири Абдул-Самад / Khiry Abdul-Samad, Джо Пеши / Joe Pesci, Данте Бэско / Dante Basco, Майкл Бауэр / Michael Bower, Брэндон Квентин Адамс / Brandon Quintin Adams

Описание: Смесь видеозаписей живых концертов Майкла Джексона и ряда художественных сцен с ним, как главным героем. Сюда вошли некоторые из лучших видеоклипов Майкла, отснятых во время мирового турне с альбомом «Bad», а также видео «Smooth Criminal» с сюжетной линией в стиле «фэнтэзи». Вся история рассказана посредством музыкитанца и полна спецэффектов. "Лунная походка" - это настоящее сокровище для коллекционеров, здесь смешаны самые знаменитые видеоклипы с малоизвестными клипами времен начала его карьеры в группе "Jackson 5", также "живой" концерт и выступления звезды на церемониях Грэмми. Также в диск включен приключенческий фильм, сценарий которого был придуман самим Майклом Джексоном, он приоткрывает завесу над полетом творческой фантазии гения поп-музыки. Яркие эпизодические роли сыграли такие знаменитости, как Джо Пеши, Мик Джаггер, Шон Леннон, Элизабет Тейлор и другие!

►сэмпл◄
Просматривать плеером, имеющим возможность выбора языка (аудиодорожки), KMPlayer, Nero ShowTime.....
Качество: LDRip > DVD5 (Custom)
Формат: DVD-Video
Видео: PAL 4:3 (720x576) VBR, ~ 6240.99 kbps avg
Аудио #1: Русский (Dolby AC3, 2 ch, 192 kbps) - Гаврилов
Аудио #2: English (Dolby AC3, 2 ch, 192 kbps) - Английский (оригинал)
Субтитры: отсутствуют

Доп. информация: DVD изготовлен на основе LD PAL (Англия). Оцифровка с LD Pioneer CLD-D925 на DVD-рекордер Panasonic DMR-ES18. Авторинг выполнен multmirом в DVD Maestro.
Меню одно (главное и звук) русскоязычное, неанимированное, озвученное.
Релиз группы:
Title: Лунная походка LD PAL FS
Size: 3.91 Gb ( 4 101 930,00 KBytes ) - DVD-5
Enabled regions: 1, 2, 3, 4, 5, 6

VTS_01 :
Play Length: 01:29:44
Video: PAL 4:3 (720x576) VBR
Audio:
Russian (Dolby AC3, 2 ch)
English (Dolby AC3, 2 ch)

* Menus Information *

VIDEO_TS Menu
Video:
PAL 4:3 (720x576) VBR
English Language Unit :
Title Menu

VTS_01 Menu
Video:
PAL 4:3 (720x576) VBR
Audio:
Not specified (Dolby AC3, 2 ch)
English Language Unit :
Root Menu
General
Complete name : X:\DVD\Лунная походка LD PAL FS\VIDEO_TS\VTS_01_1.VOB
Format : MPEG-PS
File size : 1 024 MiB
Duration : 22 min 52 s
Overall bit rate mode : Variable
Overall bit rate : 6 258 kb/s

Video
ID : 224 (0xE0)
Format : MPEG Video
Format version : Version 2
Format profile : Main@Main
Format settings : BVOP
Format settings, BVOP : Yes
Format settings, Matrix : Default
Format settings, GOP : M=3, N=12
Format settings, picture structure : Frame
Duration : 22 min 52 s
Bit rate mode : Variable
Bit rate : 5 558 kb/s
Maximum bit rate : 9 282 kb/s
Width : 720 pixels
Height : 576 pixels
Display aspect ratio : 4:3
Frame rate : 25.000 FPS
Standard : PAL
Color space : YUV
Chroma subsampling : 4:2:0
Bit depth : 8 bits
Scan type : Interlaced
Scan order : Top Field First
Compression mode : Lossy
Bits/(Pixel*Frame) : 0.536
Time code of first frame : 00:00:00:00
Time code source : Group of pictures header
GOP, Open/Closed : Open
Stream size : 909 MiB (89%)
Color primaries : BT.601 PAL
Transfer characteristics : BT.470 System B/G
Matrix coefficients : BT.470 System B/G

Audio #1
ID : 189 (0xBD)-128 (0x80)
Format : AC-3
Format/Info : Audio Coding 3
Commercial name : Dolby Digital
Muxing mode : DVD-Video
Duration : 22 min 52 s
Bit rate mode : Constant
Bit rate : 192 kb/s
Channel(s) : 2 channels
Channel layout : L R
Sampling rate : 48.0 kHz
Frame rate : 31.250 FPS (1536 SPF)
Compression mode : Lossy
Stream size : 31.4 MiB (3%)
Service kind : Complete Main

Audio #2
ID : 189 (0xBD)-129 (0x81)
Format : AC-3
Format/Info : Audio Coding 3
Commercial name : Dolby Digital
Muxing mode : DVD-Video
Duration : 22 min 52 s
Bit rate mode : Constant
Bit rate : 384 kb/s
Channel(s) : 2 channels
Channel layout : L R
Sampling rate : 48.0 kHz
Frame rate : 31.250 FPS (1536 SPF)
Compression mode : Lossy
Stream size : 62.8 MiB (6%)
Service kind : Complete Main

Menu
скриншот  
скриншот  скриншот  скриншот  
pb.wtf



Скачать Майкл Джексон: Лунная походка через торрент https://i1.imageban.ru/out/2020/07/11/847f3c82995bfd25dc499c6e71a39fd6.jpg Скачать фильм Майкл Джексон: Лунная походка через торрент бесплантно в хорошем качестве Описание: Смесь видеозаписей живых концертов Майкла Джексона и ряда художественных сцен с ним, как главным героем. Сюда вошли некоторые из ... 10 10 4
Торрент: Зарегистрирован [2020-07-19 12:50] · скачан: 18 раз
Статус: √ проверено
Размер: 3.91 GB
Как cкачать? Как скачать Майкл Джексон: Лунная походка через торрент | qTorrent

% Раздел Тема Автор DL S | L
Фильмы до 2000 г. [ 2.18 GB ] Майкл Джексон: Лунная походка / Michael Jackson: Moonwalker [1988 музыка BDRip MVO] jump88 Скачать
1 | 0

28-11-2019 20:33  

Отключить всю рекламу на сайте

19-07-2020 13:00 Майкл Джексон: Лунная походка Скачать торрент  

killermax2013, большое спасибоpb.wtf
Kkillermax2013 писал(а):

пожалуйста



    Дорогой пользователь! Огромная просьба, поблагодарите релизера, оцените раздачу и оставьте свои комментарий, если Вы скачали Майкл Джексон: Лунная походка через торрент бесплатно! Внесите свою лепту в развитие PiratBit!
    Комментировать посты могут только пользователи прошедшие не сложную регистрацию
    Показать сообщения:    

    Майкл Джексон: Лунная походка через торрент
    Скачать бесплатно Майкл Джексон: Лунная походка
    Майкл Джексон: Лунная походка скачать торрент
    Майкл Джексон: Лунная походка смотреть онлайн
    Cкачать фильм Майкл Джексон: Лунная походка бесплатно
    Майкл Джексон: Лунная походка скачать торрент в хорошем качестве
    Майкл Джексон: Лунная походка смотреть онлайн бесплатно в хорошем качестве


    Вы не можете начинать темы
    Вы не можете отвечать на сообщения
    Вы не можете редактировать свои сообщения
    Вы не можете удалять свои сообщения
    Вы не можете голосовать в опросах
    Вы не можете прикреплять файлы к сообщениям
    Вы можете скачивать файлы