Ссылка на приватное зеркало нашего сайта всего за 1$. Внимание количество ограничено!!!

2 сезон

iTunes

1 сезон

1

2 сезон

2 сезон

iTunes

1 сезон

RePack

30

Ultimate

ВАЖНО

ИГРА 18+

pack

RePack

MK11
pack

Забери бонус

RePack

jed

!!Акция!!

Alien_Rage

RePack

fifa19

RePack

Assassins Creed: Odyssey

RePack

NEED FOR SPEED™ PAYBACK

4 сезон

9 сезон

Бесстыжие 9 сезон

Все сериалы

все сериалы на PB.wtf

RePack

FAR CRY 5
  

Бесшумный / The Silencing (Робин Пронт) [2020, Триллер, боевик, криминал, WEBRip 1080p] MVO [HDRezka Studio] pb.wtf

Бесшумный через торрент pb.wtf

Раздают: 18 [ 0 KB/s ]
Размер: 4.09 GB | Добавлен: 4 мес. 13 д. назад | Торрент скачан:889 раз
Скачать  

21-07-2020 06:19 Бесшумный Скачать торрент  

Бесшумный | The Silencing
Год выпуска: 2020
Страна: Канада, США
Выпущено: Anova Pictures, Madrona Drive, Silencing Canada Productions, Wildling Pictures
Жанр: Триллер, боевик, криминал
Продолжительность: 01:34:20
Перевод: Профессиональный (многоголосый) | HDRezka Studio
Субтитры: Русские (форс.), английские

Режиссер: Робин Пронт

rating

В ролях: Николай Костер-Валдау, Аннабелль Уоллис, Зан Маккларнон, Мелани Скрофано, Хиро Файнс-Тиффин, Джош Круддас, Даниэль Райан, Даина Барбо, Шон Смит

Описание: Мужчина с тяжелым прошлым живёт в уединении в лесу, когда на местности начинают находить девушек, убитых необычным способом. Он объединяется с шерифом, пытается выследить маньяка и вскоре начинает подозревать, что тот несколько лет назад похитил его дочь.

Качество: WEBRip 1080p
Формат: MKV

Видео: MPEG-4 AVC, 5816 Кбит/с, 1920x800
Аудио#1: Русский (AC3, 2 ch, 192 Кбит/с)
Аудио#2: английский (AC3, 2 ch, 192 Кбит/с)
скриншот  скриншот  скриншот  скриншот  скриншот  

Общее
Уникальный идентификатор : 46844167947201655548324568289305238490 (0x233DDBCBB2CF2B9FA98B048403D51BDA)
Полное имя : C:\The.Silencing.2020.1080p.WEBRip.X264.AC3-EVO.mkv
Формат : Matroska
Версия формата : Version 4
Размер файла : 4,09 Гбайт
Продолжительность : 1 ч. 34 м.
Общий поток : 6202 Кбит/сек
Название фильма : trevor333
Дата кодирования : UTC 2020-07-21 04:27:44
Программа кодирования : mkvmerge v48.0.0 ('Fortress Around Your Heart') 64-bit
Библиотека кодирования : libebml v1.4.0 + libmatroska v1.6.0

Видео
Идентификатор : 1
Формат : AVC
Формат/Информация : Advanced Video Codec
Профиль формата : High@L4
Настройки формата : CABAC / 4 Ref Frames
Параметр CABAC формата : Да
Параметр RefFrames формата : 4 кадра
Идентификатор кодека : V_MPEG4/ISO/AVC
Продолжительность : 1 ч. 34 м.
Битрейт : 5816 Кбит/сек
Ширина : 1920 пикселей
Высота : 800 пикселей
Соотношение сторон : 2,40:1
Режим частоты кадров : Постоянный
Частота кадров : 23,976 (23976/1000) кадра/сек
Цветовое пространство : YUV
Субдискретизация насыщенности : 4:2:0
Битовая глубина : 8 бит
Тип развёртки : Прогрессивная
Бит/(Пиксели*Кадры) : 0.155
Размер потока : 3,75 Гбайт (92%)
Язык : English
Default : Да
Forced : Нет

Аудио #1
Идентификатор : 2
Формат : AC-3
Формат/Информация : Audio Coding 3
Коммерческое название : Dolby Digital
Идентификатор кодека : A_AC3
Продолжительность : 1 ч. 34 м.
Вид битрейта : Постоянный
Битрейт : 192 Кбит/сек
Каналы : 2 канала
ChannelLayout : L R
Частота : 48,0 КГц
Частота кадров : 31,250 кадров/сек (1536 SPF)
Битовая глубина : 16 бит
Метод сжатия : С потерями
Задержка видео : -83 мс.
Размер потока : 130 Мбайт (3%)
Язык : Russian
ServiceKind/String : Complete Main
Default : Да
Forced : Нет

Аудио #2
Идентификатор : 3
Формат : AC-3
Формат/Информация : Audio Coding 3
Коммерческое название : Dolby Digital
Идентификатор кодека : A_AC3
Продолжительность : 1 ч. 34 м.
Вид битрейта : Постоянный
Битрейт : 192 Кбит/сек
Каналы : 2 канала
ChannelLayout : L R
Частота : 44,1 КГц
Частота кадров : 28,711 кадров/сек (1536 SPF)
Битовая глубина : 16 бит
Метод сжатия : С потерями
Размер потока : 130 Мбайт (3%)
Язык : English
ServiceKind/String : Complete Main
Default : Нет
Forced : Нет

Текст #1
Идентификатор : 4
Формат : UTF-8
Идентификатор кодека : S_TEXT/UTF8
Идентификатор кодека/Информация : UTF-8 Plain Text
Заголовок : FORCED
Язык : Russian
Default : Да
Forced : Нет

Текст #2
Идентификатор : 5
Формат : UTF-8
Идентификатор кодека : S_TEXT/UTF8
Идентификатор кодека/Информация : UTF-8 Plain Text
Язык : English
Default : Нет
Forced : Нет

pb.wtf



Скачать Бесшумный через торрент http://a.kartinko.org/image_library/originals/t51fa31f6c31dot57n93z.jpg Скачать фильм Бесшумный через торрент бесплантно в хорошем качестве Описание: Мужчина с тяжелым прошлым живёт в уединении в лесу, когда на местности начинают находить девушек, убитых необычным способом. Он ... 9.6 10 22
Торрент: Зарегистрирован [2020-07-21 06:19] · скачан: 889 раз
Статус: T временная
Размер: 4.09 GB
Как cкачать? Как скачать Бесшумный через торрент | qTorrent

% Раздел Тема Автор DL S | L
T Фильмы [HD 720p, 1080p] (Хороший звук DUB, MVO) [ 5.64 GB ] Бесшумный / The Silencing [2020 BDRip 720p] DUB [Line] +DVO bober100 Скачать
6 | 0
T Фильмы [HD 720p, 1080p] (Хороший звук DUB, MVO) [ 8.35 GB ] Бесшумный / The Silencing [2020 BDRip 1080p] DUB [Line] +DVO bober100 Скачать
8 | 0
T Фильмы 2019-2020 [DVDrip, WEB-DLRip, HDrip] (DUB, MVO) [ 1.46 GB ] Бесшумный / The Silencing [2020 BDRip] DUB [Line] bober100 Скачать
16 | 0
Фильмы [HD 720p, 1080p] (Хороший звук DUB, MVO) [ 3.1 GB ] Бесшумный / The Silencing [2020 BDRip 720p] [MVO] - ExKinoRay Enigma2010 Скачать
73 | 3
T Фильмы 2019-2020 [DVDrip, WEB-DLRip, HDrip] (DUB, MVO) [ 745 MB ] Бесшумный / The Silencing [2020 WEBRip] MVO [HDRezka Studio] bober100 Скачать
2 | 0
Фильмы 2019-2020 [DVDrip, WEB-DLRip, HDrip] (DUB, MVO) [ 744 MB ] Бесшумный / The Silencing [2020 WEBRip-AVC] [MVO] [HDRezka Studio] Lithuania Скачать
4 | 0
T Фильмы 2019-2020 [DVDrip, WEB-DLRip, HDrip] (DUB, MVO) [ 1.45 GB ] Бесшумный / The Silencing [2020 WEBRip] MVO [HDRezka Studio] bober100 Скачать
8 | 0


Последний раз редактировалось: bober100 (2020-07-21 13:57), всего редактировалось 2 раз(а)

28-11-2019 20:33  

Отключить всю рекламу на сайте

21-07-2020 10:49 Бесшумный Скачать торрент  

надо смотреть, хоть пойму как ему такой протез качественный сделали, от руки настоящей не отличить))pb.wtf



21-07-2020 11:06 Бесшумный Скачать торрент  

ахах)pb.wtf



24-07-2020 11:52 Бесшумный Скачать торрент  

ай нид 6 чэнл саунд райт науpb.wtf



25-07-2020 18:52 Бесшумный Скачать торрент  

перевод неверный.
но трудно перевести на русский )

рекомендую посмотреть кино, мне понравилось!pb.wtf



    Дорогой пользователь! Огромная просьба, поблагодарите релизера, оцените раздачу и оставьте свои комментарий, если Вы скачали Бесшумный через торрент бесплатно! Внесите свою лепту в развитие PiratBit!
    Комментировать посты могут только пользователи прошедшие не сложную регистрацию
    Показать сообщения:    

    Бесшумный через торрент
    Скачать бесплатно Бесшумный
    Бесшумный скачать торрент
    Бесшумный смотреть онлайн
    Cкачать фильм Бесшумный бесплатно
    Бесшумный скачать торрент в хорошем качестве
    Бесшумный смотреть онлайн бесплатно в хорошем качестве


    Вы не можете начинать темы
    Вы не можете отвечать на сообщения
    Вы не можете редактировать свои сообщения
    Вы не можете удалять свои сообщения
    Вы не можете голосовать в опросах
    Вы не можете прикреплять файлы к сообщениям
    Вы можете скачивать файлы