Ссылка на приватное зеркало нашего сайта всего за 1$. Внимание количество ограничено!!!

2 сезон

iTunes

1 сезон

1

2 сезон

2 сезон

iTunes

1 сезон

RePack

30

Новинка

ВАЖНО

ИГРА 18+

pack

RePack

MK11
pack

Забери бонус

RePack

jed

!!Акция!!

Alien_Rage

RePack

fifa19

RePack

Assassins Creed: Odyssey

RePack

NEED FOR SPEED™ PAYBACK

4 сезон

9 сезон

Бесстыжие 9 сезон

Все сериалы

все сериалы на PB.wtf

RePack

FAR CRY 5
  

Бесшумный / The Silencing (Робин Пронт) [2020, Триллер, боевик, криминал, WEBRip 720p] [MVO] (HDRezka Studio) pb.wtf

Бесшумный через торрент pb.wtf

Раздают: 2 [ 0 KB/s ]
Размер: 1.34 GB | Добавлен: 4 мес. 15 д. назад | Торрент скачан:209 раз
Скачать  

21-07-2020 12:33 Бесшумный Скачать торрент  

Бесшумный / The Silencing Год выпуска: 2020
Страна: Канада, США
Жанр: Триллер, боевик, криминал
Продолжительность: 01:34:20
Перевод: Профессиональный (многоголосый закадровый) *HDRezka Studio *
Субтитры: Русские (forced)

Режиссер: Робин Пронт

В ролях: Николай Костер-Валдау, Аннабелль Уоллис, Зан Маккларнон, Мелани Скрофано, Хиро Файнс-Тиффин, Джош Круддас, Даниэль Райан, Даина Барбо, Шон Смит

Описание: Бывший охотник Рэйберн Свонсон, чья единственная дочь была похищена пять лет назад, долгое время пытался избавиться от душевной боли с помощью алкоголя. Отказавшись от охоты и, наконец-то, взяв свою жизнь под контроль, Рэйберн решает помогать животным, после чего открывает природный заповедник в дикой местности. Однажды, случайно увидев мужчину, облаченного в маскировочный костюм, Свонсон осознает, что неизвестный преследует девушку, которая очень похожа на его похищенную дочь. Решив спасти беглянку, экс-охотник отправляется в рискованную погоню, надеясь успеть добраться до девушки раньше предполагаемого убийцы...

rating

Качество видео: WEBRip 720p
Формат видео: MKV
Видео: AVC, 1280x532, 1 800 kb/s, 23.976 fps
Аудио: 48 kHz, AC3 Dolby Digital, 2 ch, 192 kbps
General
Unique ID : 231369733991425061495706914847049931578 (0xAE10309CC16A0D17D78FBFAF30585B3A)
Complete name : G:\The.Silencing.2020.WEBRip.720p.rus.2.0.HDREZKA.STUDIO.mkv
Format : Matroska
Format version : Version 4
File size : 1.34 GiB
Duration : 1 h 34 min
Overall bit rate mode : Variable
Overall bit rate : 2 027 kb/s
Encoded date : UTC 2020-07-21 00:34:12
Writing application : mkvmerge v28.2.0 ('The Awakening') 64-bit
Writing library : libebml v1.3.6 + libmatroska v1.4.9

Video
ID : 1
Format : AVC
Format/Info : Advanced Video Codec
Format profile : High@L4.1
Format settings : CABAC / 1 Ref Frames
Format settings, CABAC : Yes
Format settings, Reference : 1 frame
Codec ID : V_MPEG4/ISO/AVC
Duration : 1 h 34 min
Bit rate mode : Variable
Bit rate : 1 794 kb/s
Maximum bit rate : 2 000 kb/s
Width : 1 280 pixels
Height : 532 pixels
Display aspect ratio : 2.40:1
Frame rate mode : Constant
Frame rate : 23.976 (24000/1001) FPS
Color space : YUV
Chroma subsampling : 4:2:0
Bit depth : 8 bits
Scan type : Progressive
Bits/(Pixel*Frame) : 0.110
Stream size : 1.18 GiB (89%)
Default : Yes
Forced : No
Duration_Source : General_Duration

Audio
ID : 2
Format : AC-3
Format/Info : Audio Coding 3
Commercial name : Dolby Digital
Codec ID : A_AC3
Duration : 1 h 34 min
Bit rate mode : Constant
Bit rate : 192 kb/s
Channel(s) : 2 channels
Channel layout : L R
Sampling rate : 48.0 kHz
Frame rate : 31.250 FPS (1536 SPF)
Compression mode : Lossy
Stream size : 130 MiB (9%)
Language : Russian
Service kind : Complete Main
Default : Yes
Forced : No
Duration_Source : General_Duration

Text
ID : 3
Format : UTF-8
Codec ID : S_TEXT/UTF8
Codec ID/Info : UTF-8 Plain Text
Language : Russian
Default : No
Forced : No
скриншот   скриншот   скриншот  
pb.wtf



Скачать Бесшумный через торрент https://i112.fastpic.ru/big/2020/0721/c9/431a749bde898c7ca94d4527f2627ac9.png Скачать фильм Бесшумный через торрент бесплантно в хорошем качестве Описание: Бывший охотник Рэйберн Свонсон, чья единственная дочь была похищена пять лет назад, долгое время пытался избавиться от душевной ... 9.8 10 6
Торрент: Зарегистрирован [2020-07-21 12:33] · скачан: 209 раз
Статус: T временная
Размер: 1.34 GB
Как cкачать? Как скачать Бесшумный через торрент | qTorrent

% Раздел Тема Автор DL S | L
T Фильмы [HD 720p, 1080p] (Хороший звук DUB, MVO) [ 5.64 GB ] Бесшумный / The Silencing [2020 BDRip 720p] DUB [Line] +DVO bober100 Скачать
3 | 0
T Фильмы [HD 720p, 1080p] (Хороший звук DUB, MVO) [ 8.35 GB ] Бесшумный / The Silencing [2020 BDRip 1080p] DUB [Line] +DVO bober100 Скачать
5 | 0
T Фильмы 2019-2020 [DVDrip, WEB-DLRip, HDrip] (DUB, MVO) [ 1.46 GB ] Бесшумный / The Silencing [2020 BDRip] DUB [Line] bober100 Скачать
5 | 0
Фильмы [HD 720p, 1080p] (Хороший звук DUB, MVO) [ 3.1 GB ] Бесшумный / The Silencing [2020 BDRip 720p] [MVO] - ExKinoRay Enigma2010 Скачать
53 | 0
T Фильмы (WEB-DL 720p, 1080p) [ 4.09 GB ] Бесшумный / The Silencing [2020 WEBRip 1080p] MVO [HDRezka Studio] bober100 Скачать
11 | 0
T Фильмы 2019-2020 [DVDrip, WEB-DLRip, HDrip] (DUB, MVO) [ 745 MB ] Бесшумный / The Silencing [2020 WEBRip] MVO [HDRezka Studio] bober100 Скачать
1 | 0
Фильмы 2019-2020 [DVDrip, WEB-DLRip, HDrip] (DUB, MVO) [ 744 MB ] Бесшумный / The Silencing [2020 WEBRip-AVC] [MVO] [HDRezka Studio] Lithuania Скачать
1 | 0

28-11-2019 20:33  

Отключить всю рекламу на сайте

22-07-2020 09:59 Бесшумный Скачать торрент  

Николай Бесшумный... от создателей Эдуарда Сурового... pb.wtf



    Дорогой пользователь! Огромная просьба, поблагодарите релизера, оцените раздачу и оставьте свои комментарий, если Вы скачали Бесшумный через торрент бесплатно! Внесите свою лепту в развитие PiratBit!
    Комментировать посты могут только пользователи прошедшие не сложную регистрацию
    Показать сообщения:    

    Бесшумный через торрент
    Скачать бесплатно Бесшумный
    Бесшумный скачать торрент
    Бесшумный смотреть онлайн
    Cкачать фильм Бесшумный бесплатно
    Бесшумный скачать торрент в хорошем качестве
    Бесшумный смотреть онлайн бесплатно в хорошем качестве


    Вы не можете начинать темы
    Вы не можете отвечать на сообщения
    Вы не можете редактировать свои сообщения
    Вы не можете удалять свои сообщения
    Вы не можете голосовать в опросах
    Вы не можете прикреплять файлы к сообщениям
    Вы можете скачивать файлы