Ссылка на приватное зеркало нашего сайта всего за 1$. Внимание количество ограничено!!!

2 сезон

iTunes

1 сезон

1

iTunes

iTunes

iTunes

1 сезон

RePack

30

ИГРА 18+

pack

ВАЖНО

!!Акция!!

Alien_RageХит недели

RePack

MK11
pack

Забери бонус

RePack

jed

!!Акция!!

Alien_Rage

RePack

fifa19

RePack

Assassins Creed: Odyssey

RePack

NEED FOR SPEED™ PAYBACK

4 сезон

9 сезон

Бесстыжие 9 сезон

Все сериалы

все сериалы на PB.wtf

RePack

FAR CRY 5
  

Как извести любовницу за семь дней / Серии 1-4 из 4 (Валерия Ивановская) [2017, Мелодрама, WEB-DL 1080p] pb.wtf

Как извести любовницу за семь дней через торрент pb.wtf

Раздают: 1 [ 0 KB/s ]
Размер: 4.67 GB | Добавлен: 3 мес. 7 д. назад | Торрент скачан:21 раз
Скачать  

22-07-2020 11:49 Как извести любовницу за семь дней Скачать торрент  

Как извести любовницу за семь дней
Год выпуска: 2017

Страна: Россия

Жанр: Мелодрама

Продолжительность: 4 х ~ 00:46:00

Перевод: Не требуется

Субтитры: отсутствуют

Режиссер: Валерия Ивановская

В ролях: Светлана Колпакова, Ольга Медынич, Олег Масленников-Войтов, Александр Никитин, Анна Попова, Кирилл Гребенщиков, Алексей Секирин

Описание: Аня - многодетная мать. Яна - убеждённая "чайлдфри". У них диаметрально противоположные представления о счастье, зато одинаковые - о дружбе. Они вместе с детского сада, не мыслят жизни одна без другой и давно смирились с тем, что в семейных вопросах никогда не поймут друг друга. Однажды Аня выясняет, что у мужа Славы появилась любовница. Первая мысль - развод. Но уже на завтра Ане кажется, что просто так отдать другой то, что строилось почти двадцать лет, - непозволительная роскошь. Когда Слава с любовницей Юлей едут на курорт, Аня решает поехать за ними. Присмотреть за её четырьмя детьми она уговаривает Яну. Яна в трансе: мысль остаться наедине с оравой детей кажется ей чудовищной, но потом приходит в голову потрясающая идея использовать ситуацию в своих целях.
Качество: WEB-DL 1080p
Формат: MKV
Видео: MPEG-4 AVC, ~ 3517 Кбит/с, 1920x1080, 25 кадр/c
Аудио: Русский, AC3, 2 ch, 192 Кбит/сек
Видео
Идентификатор : 1
Формат : AVC
Формат/Информация : Advanced Video Codec
Профиль формата : High@L4
Настройки формата : CABAC / 2 Ref Frames
Параметр CABAC формата : Да
Параметр RefFrames формата : 2 кадра
Идентификатор кодека : V_MPEG4/ISO/AVC
Продолжительность : 46 м. 11 с.
Битрейт : 3517 Кбит/сек
Ширина : 1920 пикселей
Высота : 1080 пикселей
Соотношение сторон : 16:9
Режим частоты кадров : Постоянный
Частота кадров : 25,000 кадров/сек
Цветовое пространство : YUV
Субдискретизация насыщенности : 4:2:0
Битовая глубина : 8 бит
Тип развёртки : Прогрессивная
Бит/(Пиксели*Кадры) : 0.068
Размер потока : 1,13 Гбайт (95%)
Default : Да
Forced : Нет
Цветовой диапазон : Limited
Основные цвета : BT.709
Характеристики трансфера : BT.709
Коэффициенты матрицы : BT.709

Аудио
Идентификатор : 2
Формат : AC-3
Формат/Информация : Audio Coding 3
Коммерческое название : Dolby Digital
Идентификатор кодека : A_AC3
Продолжительность : 46 м. 11 с.
Вид битрейта : Постоянный
Битрейт : 192 Кбит/сек
Каналы : 2 канала
ChannelLayout : L R
Частота : 44,1 КГц
Частота кадров : 28,711 кадров/сек (1536 SPF)
Метод сжатия : С потерями
Размер потока : 63,4 Мбайт (5%)
ServiceKind/String : Complete Main
Default : Да
Forced : Нет

скриншот   скриншот   скриншот   скриншот   скриншот  

pb.wtf



Скачать Как извести любовницу за семь дней через торрент http://pic1.kartinco.top/images/12/q4t1c.jpg Скачать фильм Как извести любовницу за семь дней через торрент бесплантно в хорошем качестве Описание: Аня - многодетная мать. Яна - убеждённая "чайлдфри". У них диаметрально противоположные представления о счастье, зато одинаковые ... 10 10 2
Торрент: Зарегистрирован [2020-07-22 11:49] · скачан: 21 раз
Статус: √ проверено
Размер: 4.67 GB
Как cкачать? Как скачать Как извести любовницу за семь дней через торрент | qTorrent

% Раздел Тема Автор DL S | L
Наши сериалы [ 2.34 GB ] Как извести любовницу за семь дней / Серии 1-4 из 4 [2017 Мело WEB-DLRip] bober100 Скачать
1 | 0
Наши сериалы [ 2.44 GB ] Как извести любовницу за семь дней / Серия 1-4 из 4 / [2017 Мело SATRip] oleg8 Скачать
1 | 0

28-11-2019 20:33  

Отключить всю рекламу на сайте

    Дорогой пользователь! Огромная просьба, поблагодарите релизера, оцените раздачу и оставьте свои комментарий, если Вы скачали Как извести любовницу за семь дней через торрент бесплатно! Внесите свою лепту в развитие PiratBit!
    Комментировать посты могут только пользователи прошедшие не сложную регистрацию
    Показать сообщения:    

    Как извести любовницу за семь дней через торрент
    Скачать бесплатно Как извести любовницу за семь дней
    Как извести любовницу за семь дней скачать торрент
    Как извести любовницу за семь дней смотреть онлайн
    Cкачать фильм Как извести любовницу за семь дней бесплатно
    Как извести любовницу за семь дней скачать торрент в хорошем качестве
    Как извести любовницу за семь дней смотреть онлайн бесплатно в хорошем качестве


    Вы не можете начинать темы
    Вы не можете отвечать на сообщения
    Вы не можете редактировать свои сообщения
    Вы не можете удалять свои сообщения
    Вы не можете голосовать в опросах
    Вы не можете прикреплять файлы к сообщениям
    Вы можете скачивать файлы