Ссылка на приватное зеркало всего за 1$. Внимание количество ограничено!!!

iTunes

iTunes

iTunes

1

iTunes

iTunes

iTunes

WEBRip

iTunes

30
pack

$ от Little Big

ВАЖНО

!!Акция!!

Alien_RageХит недели

RePack

Resident Evil 21

ИГРА 18+

pack

RePack

jed

!!Акция!!

Alien_Rage

RePack

fifa19

RePack

Assassins Creed: Odyssey

RePack

NEED FOR SPEED™ PAYBACK

4 сезон

9 сезон

Бесстыжие 9 сезон

Все сериалы

все сериалы на PB.wtf

RePack

FAR CRY 5
  

Дивный новый мир / Brave New World / Сезон: 1 / Серии: 1-9 из 9 (Оуэн Харрис) [2020, фантастика, драма, WEB-DL 1080p] [MVO] (NewStudio) pb.wtf

Дивный новый мир через торрент pb.wtf

Раздают: 3 [ 1 MB/s ]
Размер: 23.75 GB | Добавлен: 6 д. назад | Торрент скачан:10 раз
Скачать  

22-07-2020 16:25 Дивный новый мир Скачать торрент  

Дивный новый мир | Brave New World
«***»

Производство: США
Год выпуска: 2020
Жанр: фантастика, драма
Продолжительность: ~ 00:48:00 серия
Перевод: Профессиональный (многоголосый закадровый) |NewStudio|
Режиссер: Оуэн Харрис, Ифа Макардл, Андрий Парекх

В ролях:Олден Эренрайк (Alden Ehrenreich), Джессика Браун-Финдли (Jessica Brown-Findlay), Гарри Ллойд (Harry Lloyd), Нина Сосанья (Nina Sosanya), Джозеф Морган (Joseph Morgan), Кайли Банбери (Kylie Bunbury), Сэн Мицудзи (Sen Mitsuji), Ханна Джон-Кэймен (Hannah John-Kamen), Софи Макинтош (Sophie McIntosh), Мэттью Обри (Matthew Aubrey), Эд Стоппард (Ed Stoppard), Кейт Флитвуд (Kate Fleetwood), Энн Акин (Ann Akin), Деми Мур (Demi Moore), Наоми Кристи (Naomi Yang)
Описание:
Добро пожаловать в дивный новый мир — будущее гедонизма, в котором все счастливы, и каждый принадлежит всем. Обитатели Нового Лондона живут по трем правилам: никакой частной жизни, никакой семьи, никакой моногамии. А если кто-то поддается преступной меланхолии, на помощь всегда приходит волшебная таблетка сомы. Но и в раю случаются неприятности: ученую Линайну (Джессика Браун-Финдли) обвиняют в моногамных отношениях. А блюститель порядка Бернард (Гарри Ллойд) после столкновения с эпсилоном из низшей касты, совершившим суицид, стал сам не свой. Работники инкубатория решают взять небольшой отпуск и отправиться в земли дикарей — парк развлечений для прогрессивных горожан, в котором обычные люди демонстрируют все грехи прошлого: ревность, боль, жадность. Тем временем повстанцы из резервации, недовольные чужаками из нового мира, вынашивают план мести. Бернард и Линайна даже не представляют, что поездка, в ходе которой они познакомятся с дикарем Джоном (Олден Эйренрайк), изменит их жизнь.


Качество видео: WEB-DL 1080p
Формат: MKV
Видео: AVC, 1920 x 1080 (1.778), 23.976 fps, 7 461 Кбит/сек
Аудио Rus: AC-3, 48 kHz, 6 ch, 384 kbps |NewStudio|
Аудио Eng: E-AC-3, 48 kHz, 6 ch, 192 kbps |Original|
Субтитры: Rus (MENINSUB), Eng (SDH)
Реклама: Отсутствует
Общее
Уникальный идентификатор : 270131224882660257249394073592898646272 (0xCB3961A96E2A953E9D06DCAAFAF9F100)
Полное имя : E:\_Сериалы\_Сериалы\Дивный новый мир\Brave.New.World.s01.WEB-DL.1080p.Rus.Eng\Brave.New.World.s01e01.WEB-DL.1080p.RGzsRutracker.mkv
Формат : Matroska
Версия формата : Version 4
Размер файла : 2,72 Гбайт
Продолжительность : 48 м. 27 с.
Общий поток : 8 039 Кбит/сек
Дата кодирования : UTC 2020-07-30 09:27:42
Программа кодирования : mkvmerge v48.0.0 ('Fortress Around Your Heart') 64-bit
Библиотека кодирования : libebml v1.4.0 + libmatroska v1.6.0

Видео
Идентификатор : 1
Формат : AVC
Формат/Информация : Advanced Video Codec
Профиль формата : High@L4
Настройки формата : CABAC / 4 Ref Frames
Параметр CABAC формата : Да
Параметр RefFrames формата : 4 кадра
Идентификатор кодека : V_MPEG4/ISO/AVC
Продолжительность : 48 м. 27 с.
Битрейт : 7 461 Кбит/сек
Ширина : 1 920 пикселей
Высота : 1 080 пикселей
Соотношение сторон : 16:9
Режим частоты кадров : Постоянный
Частота кадров : 23,976 (24000/1001) кадра/сек
Цветовое пространство : YUV
Субдискретизация насыщенности : 4:2:0
Битовая глубина : 8 бит
Тип развёртки : Прогрессивная
Бит/(Пиксели*Кадры) : 0.150
Размер потока : 2,53 Гбайт (93%)
Язык : English
Default : Да
Forced : Нет

Аудио #1
Идентификатор : 2
Формат : AC-3
Формат/Информация : Audio Coding 3
Коммерческое название : Dolby Digital
Идентификатор кодека : A_AC3
Продолжительность : 48 м. 27 с.
Вид битрейта : Постоянный
Битрейт : 384 Кбит/сек
Каналы : 6 каналов
Channel layout : L R C LFE Ls Rs
Частота : 48,0 КГц
Частота кадров : 31,250 кадров/сек (1536 SPF)
Метод сжатия : С потерями
Размер потока : 133 Мбайт (5%)
Заголовок : NewStudio
Язык : Russian
Service kind : Complete Main
Default : Да
Forced : Нет

Аудио #2
Идентификатор : 3
Формат : E-AC-3
Формат/Информация : Enhanced AC-3
Коммерческое название : Dolby Digital Plus
Идентификатор кодека : A_EAC3
Продолжительность : 48 м. 27 с.
Вид битрейта : Постоянный
Битрейт : 192 Кбит/сек
Каналы : 6 каналов
Channel layout : L R C LFE Ls Rs
Частота : 48,0 КГц
Частота кадров : 31,250 кадров/сек (1536 SPF)
Метод сжатия : С потерями
Задержка видео : 24 мс.
Размер потока : 66,5 Мбайт (2%)
Заголовок : English
Язык : English
Service kind : Complete Main
Default : Нет
Forced : Нет

Текст #1
Идентификатор : 4
Формат : UTF-8
Идентификатор кодека : S_TEXT/UTF8
Идентификатор кодека/Информация : UTF-8 Plain Text
Продолжительность : 46 м. 14 с.
Битрейт : 66 бит/сек
Count of elements : 530
Размер потока : 22,5 Кбайт (0%)
Заголовок : Russian
Язык : Russian
Default : Нет
Forced : Нет

Текст #2
Идентификатор : 5
Формат : UTF-8
Идентификатор кодека : S_TEXT/UTF8
Идентификатор кодека/Информация : UTF-8 Plain Text
Продолжительность : 48 м. 8 с.
Битрейт : 52 бит/сек
Count of elements : 667
Размер потока : 18,7 Кбайт (0%)
Заголовок : English
Язык : English
Default : Нет
Forced : Нет

Текст #3
Идентификатор : 6
Формат : UTF-8
Идентификатор кодека : S_TEXT/UTF8
Идентификатор кодека/Информация : UTF-8 Plain Text
Продолжительность : 48 м. 17 с.
Битрейт : 57 бит/сек
Count of elements : 744
Размер потока : 20,3 Кбайт (0%)
Заголовок : English [SDH]
Язык : English
Default : Нет
Forced : Нет

скриншот  скриншот  скриншот  

Раздача ведётся путём добавления новых серий; при каждом добавлении создаётся новый торрент.
Чтобы начать докачку новой серии, пользователям необходимо сделать следующее:
1. остановить скачивание,
2. удалить старый торрент у себя из клиента (старые серии удалять не надо),
3. скачать новый торрент и запустить его у себя в клиенте вместо старого, при этом указать клиенту путь в старую папку, куда и должно происходить скачивание новых серий.

Ваш клиент при этом должен произвести хеширование (проверку) старой папки (если не производит сам - помогите ему сделать это), и будет докачивать только те серии которых у вас ещё нет. Старые серии при этом не удаляются, а продолжают раздаваться!

Eсли вы уже удалили старые серии, то предотвратить повторную закачку старых серий можно, отжав галочку в соответствующих местах при запуске нового торрента. По возможности, желательно не удалять старые серии как можно дольше, чтобы релизёр не столько продолжал раздавать старые серии, а смог сконцентрироваться на новых.

Совет для тех, кто не хочет ждать перехеширования:
Создайте ещё одну папку рядом с папкой сериала (рядом, а не в ней!!!). Каждую новую серию после удачной загрузки копируйте в новую папку так чтобы ваша основная папка всегда была пуста. Когда ваш новый торрент предложит вам закачать все файлы, выберете только последнюю. Для сидирования же укажите адрес новой папки.

Как закачать отдельный файл из торрента или докачать ранее пропущенные файлы торрента!

1. Открыть торрент
2. Снять галки с тех файлов торрента, которые мы не хотим закачивать. Оставляем только на нужных нам файлах (файле).
3. Нажать О.К.

В клиенте utorrent

Инструкция

1) Открыть торрент


2) Снять галки с тех файлов торрента, которые мы не хотим закачивать:

* либо вручную, снимая с каждого файла галку( скрин №1)
* либо, нажав кнопку "Снять метки (Select None)", сняв сразу со всех файлов(скрин №2)
№1

№2

Оставляем только на нужных нам файлах (файле).

3)Нажать О.К

pb.wtf



Скачать Дивный новый мир через торрент https://i5.imageban.ru/out/2020/07/22/58387361afe26302e9679bbb423c60c5.png Скачать фильм Дивный новый мир через торрент бесплантно в хорошем качестве Описание:Добро пожаловать в дивный новый мир — будущее гедонизма, в котором все счастливы, и каждый принадлежит всем. Обитатели Нового ... 8.3 10 6
Торрент: Зарегистрирован [2020-08-02 16:36] · скачан: 10 раз
Статус: √ проверено
Размер: 23.75 GB
Как cкачать? Как скачать Дивный новый мир через торрент | qTorrent

% Раздел Тема Автор DL S | L
Зарубежные сериалы [ 5.88 GB ] Дивный новый мир / Brave New World / Сезон: 1 / Серии: 1-9 из 9 [2020 WEB-DLRip] MVO [NewStudio] bober100 Скачать
13 | 0
Зарубежные сериалы [ 6.46 GB ] Дивный новый мир / Brave New World / Сезон: 1 / Серии: 1-9 из 9 [2020 WEB-DLRip] MVO [Кравец-Рекордз] bober100 Скачать
12 | 1
Зарубежные сериалы [ 23.19 GB ] Дивный новый мир / Brave New World / Сезон: 1 / Серии: 1-9 из 9 [2020 WEB-DL 1080p] DVO [Кубик в Кубе] bober100 Скачать
7 | 4
Зарубежные сериалы [ 6.46 GB ] Дивный новый мир / Brave New World / Сезон: 1 / Серии: 1-9 из 9 [2020 WEB-DLRip] DVO [Кубик в Кубе] bober100 Скачать
9 | 0
Зарубежные сериалы [ 23.19 GB ] Дивный новый мир / Brave New World / Сезон: 1 / Серии: 1-9 из 9 [2020 WEB-DL 1080p] MVO [Кравец-Рекордз] bober100 Скачать
9 | 2
Зарубежные сериалы [ 2.22 GB ] Дивный новый мир / Brave New World / Сезон: 1 / Серии: 1- из 9 [2020 WEBRip 1080p] [MVO] killermax2013 Скачать
2 | 0

28-11-2019 20:33  

Отключить всю рекламу на сайте

    Дорогой пользователь! Огромная просьба, поблагодарите релизера, оцените раздачу и оставьте свои комментарий, если Вы скачали Дивный новый мир через торрент бесплатно! Внесите свою лепту в развитие PiratBit!
    Комментировать посты могут только пользователи прошедшие не сложную регистрацию
    Показать сообщения:    

    Дивный новый мир через торрент
    Скачать бесплатно Дивный новый мир
    Дивный новый мир скачать торрент
    Дивный новый мир смотреть онлайн
    Cкачать фильм Дивный новый мир бесплатно
    Дивный новый мир скачать торрент в хорошем качестве
    Дивный новый мир смотреть онлайн бесплатно в хорошем качестве


    Вы не можете начинать темы
    Вы не можете отвечать на сообщения
    Вы не можете редактировать свои сообщения
    Вы не можете удалять свои сообщения
    Вы не можете голосовать в опросах
    Вы не можете прикреплять файлы к сообщениям
    Вы можете скачивать файлы