Ссылка на приватное зеркало всего за 1$. Внимание количество ограничено!!!

iTunes

iTunes

iTunes

1

iTunes

iTunes

iTunes

WEBRip

iTunes

30
pack

$ от Little Big

ВАЖНО

!!Акция!!

Alien_RageХит недели

RePack

Resident Evil 21

ИГРА 18+

pack

RePack

jed

!!Акция!!

Alien_Rage

RePack

fifa19

RePack

Assassins Creed: Odyssey

RePack

NEED FOR SPEED™ PAYBACK

4 сезон

9 сезон

Бесстыжие 9 сезон

Все сериалы

все сериалы на PB.wtf

RePack

FAR CRY 5
  

Гарпун / Harpoon (Роб Грант) [2019, триллер, комедия, BDRip 1080p] [VO] (Psychotronic) pb.wtf

Гарпун через торрент pb.wtf

Раздают: 4 [ 91 KB/s ]
Размер: 10.32 GB | Добавлен: 21 д. назад | Торрент скачан:57 раз
Скачать  

22-07-2020 18:51 Гарпун Скачать торрент  

Гарпун / Harpoon Год выпуска: 2019
Страна: Канада
Жанр: триллер, комедия
Продолжительность: 01:22:32

Перевод: Любительский (одноголосый закадровый) Psychotronic
Субтитры: русские, английские

Режиссер: Роб Грант / Rob Grant

В ролях: Манро Чэмберс, Кристофер Грэй, Эмили Тайра, Бретт Гельман, Кертис Дэвид Хардер, Роб Грант, Майкл Питерсон

Описание: Джона, Саша и Ричард дружили с детства, хоть у них и было мало общего. Троица отправляется покататься на яхте, когда Ричард выясняет, что Саша изменяет ему с лучшим другом. Потасовка и пререкания заканчиваются тем, что ребята выкидывают все потенциально опасные предметы за борт и обещают не убивать друг друга, когда выясняется, что яхта не заводится.

rating
Сэмпл: http://sendfile.su/1569912

Тип релиза: BDRip 1080p [Harpoon.2019.1080p.BluRay.DD+5.1.x264-PTer]
Контейнер: MKV

Видео: H.264/AVC, 1920х1080, 16:9, 15,6 Мбит/сек, 23,976 кадра/сек
Аудио: AC3, 5.1, 48,0 КГц, 640 Кбит/сек, Русский (Psychotronic)
Аудио 2: E-AC3, 5.1, 48,0 КГц, 1024 Кбит/сек, Английский
Аудио 3: AC3, 2.0, 48,0 КГц, 320 Кбит/сек, Комментарии режиссера
Аудио 4: AC3, 2.0, 48,0 КГц, 320 Кбит/сек, Комментарии режиссера под психоделиками
Формат субтитров: softsub (SRT)
Общее
Полное имя : Harpoon.2019.1080p.mkv
Формат : Matroska
Версия формата : Version 4 / Version 2
Размер файла : 10,3 Гбайт
Продолжительность : 1 ч. 22 м.
Общий поток : 17,9 Мбит/сек
Дата кодирования : UTC 2020-07-22 15:08:29
Программа кодирования : mkvmerge v25.0.0 ('Prog Noir') 64-bit
Библиотека кодирования : libebml v1.3.6 + libmatroska v1.4.9

Видео
Идентификатор : 1
Формат : AVC
Формат/Информация : Advanced Video Codec
Профиль формата : High@L4.1
Параметр CABAC формата : Да
Параметр ReFrames формата : 4 кадра
Идентификатор кодека : V_MPEG4/ISO/AVC
Продолжительность : 1 ч. 22 м.
Битрейт : 15,6 Мбит/сек
Ширина : 1920 пикселей
Высота : 1080 пикселей
Соотношение сторон : 16:9
Режим частоты кадров : Постоянный
Частота кадров : 23,976 (24000/1001) кадра/сек
Цветовое пространство : YUV
Субдискретизация насыщенности : 4:2:0
Битовая глубина : 8 бит
Тип развёртки : Прогрессивная
Бит/(Пиксели*Кадры) : 0.313
Размер потока : 8,98 Гбайт (87%)
Библиотека кодирования : x264 core 158 r2984+47 456d10a t_mod_New [0-bit@all X86_64]
Настройки программы : cabac=1 / ref=4 / deblock=1:-3:-3 / analyse=0x3:0x133 / me=umh / subme=11 / psy=1 / fade_compensate=0.00 / psy_rd=1.00:0.00 / mixed_ref=1 / me_range=32 / chroma_me=1 / trellis=2 / 8x8dct=1 / cqm=0 / deadzone=21,11 / fast_pskip=0 / chroma_qp_offset=-2 / threads=12 / lookahead_threads=3 / sliced_threads=0 / nr=0 / decimate=0 / interlaced=0 / bluray_compat=0 / constrained_intra=0 / fgo=0 / bframes=10 / b_pyramid=2 / b_adapt=2 / b_bias=0 / direct=3 / weightb=1 / open_gop=0 / weightp=2 / keyint=250 / keyint_min=23 / scenecut=40 / intra_refresh=0 / rc_lookahead=250 / rc=crf / mbtree=0 / crf=21.4000 / qcomp=0.65 / qpmin=0:0:0 / qpmax=69:69:69 / qpstep=4 / vbv_maxrate=62500 / vbv_bufsize=78125 / crf_max=0.0 / nal_hrd=none / filler=0 / ip_ratio=1.30 / pb_ratio=1.20 / aq=3:0.82 / aq-sensitivity=10.00 / aq-factor=1.00:1.00:1.00 / aq2=0 / aq3=0
Язык : English
Default : Да
Forced : Нет
Цветовой диапазон : Limited
Основные цвета : BT.709
Коэффициенты матрицы : BT.709

Аудио #1
Идентификатор : 2
Формат : AC-3
Формат/Информация : Audio Coding 3
Расширение режима : CM (complete main)
Параметр Endianness формата : Big
Идентификатор кодека : A_AC3
Продолжительность : 1 ч. 22 м.
Вид битрейта : Постоянный
Битрейт : 640 Кбит/сек
Каналы : 6 каналов
Расположение каналов : Front: L C R, Side: L R, LFE
Частота : 48,0 КГц
Частота кадров : 31,250 кадров/сек (1536 spf)
Метод сжатия : С потерями
Размер потока : 378 Мбайт (4%)
Заголовок : Psychotronic
Язык : Russian
Default : Да
Forced : Нет

Аудио #2
Идентификатор : 3
Формат : E-AC-3
Формат/Информация : Audio Coding 3
Параметр Endianness формата : Big
Идентификатор кодека : A_EAC3
Продолжительность : 1 ч. 22 м.
Вид битрейта : Постоянный
Битрейт : 1024 Кбит/сек
Каналы : 6 каналов
Расположение каналов : Front: L C R, Side: L R, LFE
Частота : 48,0 КГц
Частота кадров : 187,500 кадров/сек (256 spf)
Метод сжатия : С потерями
Размер потока : 605 Мбайт (6%)
Заголовок : Original
Язык : English
Default : Нет
Forced : Нет

Аудио #3
Идентификатор : 4
Формат : AC-3
Формат/Информация : Audio Coding 3
Расширение режима : CM (complete main)
Параметр Endianness формата : Big
Идентификатор кодека : A_AC3
Продолжительность : 1 ч. 22 м.
Вид битрейта : Постоянный
Битрейт : 320 Кбит/сек
Каналы : 2 канала
Расположение каналов : Front: L R
Частота : 48,0 КГц
Частота кадров : 31,250 кадров/сек (1536 spf)
Метод сжатия : С потерями
Размер потока : 189 Мбайт (2%)
Заголовок : Commentary by writer/director Rob Grant and co-producers Michael Peterson and Kurtis David Harder
Язык : English
Default : Нет
Forced : Нет

Аудио #4
Идентификатор : 5
Формат : AC-3
Формат/Информация : Audio Coding 3
Расширение режима : CM (complete main)
Параметр Endianness формата : Big
Идентификатор кодека : A_AC3
Продолжительность : 1 ч. 22 м.
Вид битрейта : Постоянный
Битрейт : 320 Кбит/сек
Каналы : 2 канала
Расположение каналов : Front: L R
Частота : 48,0 КГц
Частота кадров : 31,250 кадров/сек (1536 spf)
Метод сжатия : С потерями
Размер потока : 189 Мбайт (2%)
Заголовок : Psychedlic commentary by director Rob Grant
Язык : English
Default : Нет
Forced : Нет

Текст #1
Идентификатор : 6
Формат : UTF-8
Идентификатор кодека : S_TEXT/UTF8
Идентификатор кодека/Информация : UTF-8 Plain Text
Продолжительность : 1 ч. 18 м.
Битрейт : 81 бит/сек
Count of elements : 835
Размер потока : 46,6 Кбайт (0%)
Заголовок : Russian
Язык : Russian
Default : Нет
Forced : Нет

Текст #2
Идентификатор : 7
Формат : UTF-8
Идентификатор кодека : S_TEXT/UTF8
Идентификатор кодека/Информация : UTF-8 Plain Text
Продолжительность : 1 ч. 22 м.
Битрейт : 58 бит/сек
Count of elements : 941
Размер потока : 35,1 Кбайт (0%)
Заголовок : English
Язык : English
Default : Нет
Forced : Нет

Меню
00:00:00.000 : en:Chapter 1
00:07:29.490 : en:Chapter 2
00:11:41.492 : en:Chapter 3
00:22:11.163 : en:Chapter 4
00:29:24.804 : en:Chapter 5
00:35:49.355 : en:Chapter 6
00:42:18.911 : en:Chapter 7
00:47:36.311 : en:Chapter 8
00:56:48.154 : en:Chapter 9
01:03:57.750 : en:Chapter 10
01:10:51.038 : en:Chapter 11
01:15:23.602 : en:Chapter 12
скриншот   скриншот   скриншот  
pb.wtf



Скачать Гарпун через торрент https://i112.fastpic.ru/big/2020/0722/c6/a733f8a59259734d50eb9494b54baac6.jpg Скачать фильм Гарпун через торрент бесплантно в хорошем качестве Описание: Джона, Саша и Ричард дружили с детства, хоть у них и было мало общего. Троица отправляется покататься на яхте, когда Ричард ... 10 10 4
Торрент: Зарегистрирован [2020-07-22 18:51] · скачан: 57 раз
Статус: T временная
Размер: 10.32 GB
Как cкачать? Как скачать Гарпун через торрент | qTorrent

% Раздел Тема Автор DL S | L
Фильмы с авторской озвучкой [ 1.46 GB ] Гарпун / Harpoon [2019 BDRip] [AVO] killermax2013 Скачать
5 | 1
Фильмы 2009 [ 1.37 GB ] Гарпун - Резня на китобое / Harpoon - Reykjavik Whale Watching Massacre [2009 HDRip] -=BIGBOSS=- Скачать
1 | 1


Последний раз редактировалось: killermax2013 (2020-07-22 19:01), всего редактировалось 1 раз

28-11-2019 20:33  

Отключить всю рекламу на сайте

22-07-2020 18:55 Гарпун Скачать торрент  



pb.wtf



    Дорогой пользователь! Огромная просьба, поблагодарите релизера, оцените раздачу и оставьте свои комментарий, если Вы скачали Гарпун через торрент бесплатно! Внесите свою лепту в развитие PiratBit!
    Комментировать посты могут только пользователи прошедшие не сложную регистрацию
    Показать сообщения:    

    Гарпун через торрент
    Скачать бесплатно Гарпун
    Гарпун скачать торрент
    Гарпун смотреть онлайн
    Cкачать фильм Гарпун бесплатно
    Гарпун скачать торрент в хорошем качестве
    Гарпун смотреть онлайн бесплатно в хорошем качестве


    Вы не можете начинать темы
    Вы не можете отвечать на сообщения
    Вы не можете редактировать свои сообщения
    Вы не можете удалять свои сообщения
    Вы не можете голосовать в опросах
    Вы не можете прикреплять файлы к сообщениям
    Вы можете скачивать файлы