Ссылка на приватное зеркало нашего сайта всего за 1$. Внимание количество ограничено!!!

2 сезон

iTunes

1 сезон

1

2 сезон

2 сезон

iTunes

1 сезон

RePack

30

Новинка

ВАЖНО

ИГРА 18+

pack

RePack

MK11
pack

Забери бонус

RePack

jed

!!Акция!!

Alien_Rage

RePack

fifa19

RePack

Assassins Creed: Odyssey

RePack

NEED FOR SPEED™ PAYBACK

4 сезон

9 сезон

Бесстыжие 9 сезон

Все сериалы

все сериалы на PB.wtf

RePack

FAR CRY 5
  

Верность (Нигина Сайфуллаева) [2019, драма (18+), BDRip-AVC] [GER Transfer / Лицензия] pb.wtf

Верность через торрент pb.wtf

Раздают: 3 [ 0 KB/s ]
Размер: 1.46 GB | Добавлен: 4 мес. 5 д. назад | Торрент скачан:137 раз
Скачать  

24-07-2020 03:01 Верность Скачать торрент  

Верность Год выпуска: 2019
Страна: Россия
Студия: Друг Друга, PREMIER
Жанр: драма
Продолжительность: 01:21:46
Перевод: Не требуется | Лицензия Blu-ray GER
Субтитры: отсутствуют
• Версия 18+. Внимание! Сцены сексуального характера.

Режиссер: Нигина Сайфуллаева



В ролях: Александр Паль, Евгения Громова, Алексей Агранович, Марина Васильева (II), Анна Котова-Дерябина, Павел Ворожцов, Елизавета Лотова, Анастасия Денисова, Кирилл Каганович

Описание: Лена — талантливый акушер-гинеколог, её муж Сережа — артист провинциального драмтеатра. Близость и нежность у них есть, секса — нет. Лена подозревает, что Сережа завёл роман на стороне, но она мучается молча и не выдаёт свою ревность. Вместо того чтобы выяснить отношения с мужем, Лена сама начинает изменять ему со случайными мужчинами. Она, конечно, не думала, что её параллельная жизнь окажется не менее подлинной, чем основная. И не менее реальной. И настолько опасной.

Качество: BDRip-AVC | GER Transfer
Формат: MKV

Видео: 1024x428 (2, 40:1), 24 fps, MPEG-4 AVC ~ 2105 Кbps avg, 0.200 bit/pixel
Аудио: 48 kHz, AC3 Dolby Digital, 3/2 (L, C, R, l, r) + LFE ch, ~448 kbps
скриншот  скриншот  скриншот  скриншот  скриншот  

Общее
Уникальный идентификатор: 274657602606405708636926462248352906340 (0xCEA121504968B97BD4C212D28ED27C64)
Полное имя: Vernost.2019.GER.BDRip.1.46Gb.x264.mkv
Формат: Matroska
Версия формата: Version 4
Размер файла: 1, 46 Гбайт
Продолжительность: 1 ч. 21 м.
Общий поток: 2 550 Кбит/сек
Название фильма: Верность (2019)
Дата кодирования: UTC 2020-07-23 22:06:05
Программа кодирования: mkvmerge v47.0.0 ('Black Flag') 64-bit
Библиотека кодирования: libebml v1.3.10 + libmatroska v1.5.2
Обложка: Yes
Attachments: cover.jpg

Видео
Идентификатор: 1
Формат: AVC
Формат/Информация: Advanced Video Codec
Профиль формата: High@L4.1
Настройки формата: CABAC / 10 Ref Frames
Параметр CABAC формата: Да
Параметр RefFrames формата: 10 кадров
Идентификатор кодека: V_MPEG4/ISO/AVC
Продолжительность: 1 ч. 21 м.
Битрейт: 2 105 Кбит/сек
Ширина: 1 024 пикселя
Высота: 428 пикселей
Соотношение сторон: 2, 40:1
Режим частоты кадров: Постоянный
Частота кадров: 24, 000 кадра/сек
Цветовое пространство: YUV
Субдискретизация насыщенности: 4:2:0
Битовая глубина: 8 бит
Тип развёртки: Прогрессивная
Бит/(Пиксели*Кадры): 0.200
Размер потока: 1, 20 Гбайт (82%)
Заголовок: #stillet
Библиотека кодирования: x264 core 152 r2851bm ba24899
Настройки программы: cabac=1 / ref=10 / deblock=1:-2:-2 / analyse=0x3:0x113 / me=umh / subme=10 / psy=1 / psy_rd=1.00:0.15 / mixed_ref=1 / me_range=32 / chroma_me=1 / trellis=2 / 8x8dct=1 / cqm=0 / deadzone=21, 11 / fast_pskip=0 / chroma_qp_offset=-3 / threads=12 / lookahead_threads=3 / sliced_threads=0 / nr=0 / decimate=0 / interlaced=0 / bluray_compat=0 / constrained_intra=0 / bframes=12 / b_pyramid=2 / b_adapt=2 / b_bias=0 / direct=3 / weightb=1 / open_gop=0 / weightp=2 / keyint=240 / keyint_min=24 / scenecut=40 / intra_refresh=0 / rc=2pass / mbtree=0 / bitrate=2105 / ratetol=1.0 / qcomp=0.60 / qpmin=0 / qpmax=69 / qpstep=4 / cplxblur=20.0 / qblur=0.5 / ip_ratio=1.40 / pb_ratio=1.30 / aq=1:1.00
Язык: German
Default: Да
Forced: Нет

Аудио
Идентификатор: 2
Формат: AC-3
Формат/Информация: Audio Coding 3
Коммерческое название: Dolby Digital
Идентификатор кодека: A_AC3
Продолжительность: 1 ч. 21 м.
Вид битрейта: Постоянный
Битрейт: 448 Кбит/сек
Каналы: 6 каналов
Channel layout: L R C LFE Ls Rs
Частота: 48, 0 КГц
Частота кадров: 31, 250 кадров/сек (1536 SPF)
Метод сжатия: С потерями
Размер потока: 262 Мбайт (18%)
Заголовок: Blu-ray GER
Язык: Russian
Default: Да
Forced: Нет

pb.wtf



Скачать Верность через торрент https://img11.lostpic.net/2020/07/23/0a83df37a7029b4c93b9929cb12c6c29.jpg Скачать фильм Верность через торрент бесплантно в хорошем качестве Описание: Лена — талантливый акушер-гинеколог, её муж Сережа — артист провинциального драмтеатра. Близость и нежность у них есть, секса — ... 10 10 4
Торрент: Зарегистрирован [2020-07-24 03:01] · скачан: 137 раз
Статус: √ проверено
Размер: 1.46 GB
Как cкачать? Как скачать Верность через торрент | qTorrent

28-11-2019 20:33  

Отключить всю рекламу на сайте

    Дорогой пользователь! Огромная просьба, поблагодарите релизера, оцените раздачу и оставьте свои комментарий, если Вы скачали Верность через торрент бесплатно! Внесите свою лепту в развитие PiratBit!
    Комментировать посты могут только пользователи прошедшие не сложную регистрацию
    Показать сообщения:    

    Верность через торрент
    Скачать бесплатно Верность
    Верность скачать торрент
    Верность смотреть онлайн
    Cкачать фильм Верность бесплатно
    Верность скачать торрент в хорошем качестве
    Верность смотреть онлайн бесплатно в хорошем качестве


    Вы не можете начинать темы
    Вы не можете отвечать на сообщения
    Вы не можете редактировать свои сообщения
    Вы не можете удалять свои сообщения
    Вы не можете голосовать в опросах
    Вы не можете прикреплять файлы к сообщениям
    Вы можете скачивать файлы