Ссылка на приватное зеркало нашего сайта всего за 1$. Внимание количество ограничено!!!

2 сезон

iTunes

1 сезон

1

2 сезон

2 сезон

iTunes

1 сезон

RePack

30

Ultimate

ВАЖНО

ИГРА 18+

pack

RePack

MK11
pack

Забери бонус

RePack

jed

!!Акция!!

Alien_Rage

RePack

fifa19

RePack

Assassins Creed: Odyssey

RePack

NEED FOR SPEED™ PAYBACK

4 сезон

9 сезон

Бесстыжие 9 сезон

Все сериалы

все сериалы на PB.wtf

RePack

FAR CRY 5
  

Будка поцелуев 2 / The Kissing Booth 2 (Винс Марселло) [2020, мелодрама, комедия, WEB-DL 1080p] [DUB] (NetFlix) pb.wtf

Будка поцелуев 2 через торрент pb.wtf

Размер: 6.68 GB | Добавлен: 4 мес. 4 д. назад | Торрент скачан:90 раз
Скачать  

24-07-2020 10:16 Будка поцелуев 2 Скачать торрент  

Будка поцелуев 2/ The Kissing Booth 2Год выпуска: 2020
Страна: Великобритания, США
Жанр: мелодрама, комедия
Продолжительность: 02:12:45
Перевод: Дублированный [NetFlix]
Субтитры: Русские, английские

Режиссер: Винс Марселло

В ролях: Джои Кинг, Джейкоб Элорди, Молли Рингуолд, Джоэл Кортни, Фрэнсис Шолто-Дуглас, Меган Янг, Нэйтан Линн, Робби Такер, Джессика Саттон, Морн Виссер

Описание: Эль и Ной безумно любят друг друга, но обстоятельства судьбы подбрасывают новые испытания. Теперь главная героиня должна отправиться в колледж, а значит поддерживать взаимоотношения придется на расстоянии. Но получиться ли в подобном режиме сохранить верность?

rating

скриншот  

Качество: WEB-DL 1080p
Формат: MKV
Видео: MPEG-4 AVC, 5360 Кбит/с, 1920x1080
Аудио#1: E-AC3, 48 KHz, 6 ch ~ 640 Kb/s (русский)
Аудио#2: AC3, 48 KHz, 6 ch ~ 640 Kb/s (русский)
Аудио#3: E-AC3, 48 KHz, 6 ch ~ 640 Kb/s (английский)
скриншот  скриншот  скриншот  скриншот  

General
Unique ID : 17023365257723638291117802998715576474 (0xCCE94B53BDDC4DA442ABBC1F856F09A)
Complete name : F:\The.Kissing.Booth.2.2020.WEB-DL.1080p.seleZen.mkv
Format : Matroska
Format version : Version 4
File size : 6.68 GiB
Duration : 2 h 12 min
Overall bit rate mode : Variable
Overall bit rate : 7 203 kb/s
Movie name : The Kissing Booth 2 2020 from селезень
Encoded date : UTC 2020-07-24 09:49:20
Writing application : mkvmerge v40.0.0 ('Old Town Road + Pony') 64-bit
Writing library : libebml v1.3.9 + libmatroska v1.5.2

Video
ID : 1
Format : AVC
Format/Info : Advanced Video Codec
Format profile : Main@L4
Format settings : CABAC / 3 Ref Frames
Format settings, CABAC : Yes
Format settings, Reference : 3 frames
Codec ID : V_MPEG4/ISO/AVC
Duration : 2 h 12 min
Bit rate mode : Variable
Bit rate : 5 360 kb/s
Maximum bit rate : 8 040 kb/s
Width : 1 920 pixels
Height : 1 080 pixels
Display aspect ratio : 16:9
Frame rate mode : Constant
Frame rate : 24.000 FPS
Color space : YUV
Chroma subsampling : 4:2:0
Bit depth : 8 bits
Scan type : Progressive
Bits/(Pixel*Frame) : 0.108
Stream size : 4.77 GiB (71%)
Writing library : x264 core 148 r2721 6d200cf
Encoding settings : cabac=1 / ref=3 / deblock=1:0:0 / analyse=0x1:0x111 / me=umh / subme=10 / psy=1 / psy_rd=1.00:0.00 / mixed_ref=1 / me_range=24 / chroma_me=1 / trellis=2 / 8x8dct=0 / cqm=0 / deadzone=21,11 / fast_pskip=1 / chroma_qp_offset=-2 / threads=6 / lookahead_threads=1 / sliced_threads=0 / nr=0 / decimate=1 / interlaced=0 / bluray_compat=0 / stitchable=1 / constrained_intra=0 / bframes=2 / b_pyramid=0 / b_adapt=2 / b_bias=0 / direct=3 / weightb=1 / open_gop=0 / weightp=2 / keyint=250 / keyint_min=24 / scenecut=0 / intra_refresh=0 / rc_lookahead=48 / rc=2pass / mbtree=1 / bitrate=5360 / ratetol=1.0 / qcomp=0.50 / qpmin=6 / qpmax=51 / qpstep=4 / cplxblur=20.0 / qblur=0.5 / vbv_maxrate=8040 / vbv_bufsize=10720 / nal_hrd=vbr / filler=0 / ip_ratio=1.40 / aq=1:1.00
Language : English
Default : Yes
Forced : No
Duration_Source : General_Duration

Audio #1
ID : 2
Format : E-AC-3
Format/Info : Enhanced AC-3
Commercial name : Dolby Digital Plus
Codec ID : A_EAC3
Duration : 2 h 12 min
Bit rate mode : Constant
Bit rate : 640 kb/s
Channel(s) : 6 channels
Channel layout : L R C LFE Ls Rs
Sampling rate : 48.0 kHz
Frame rate : 31.250 FPS (1536 SPF)
Compression mode : Lossy
Stream size : 608 MiB (9%)
Title : Dub
Language : Russian
Service kind : Complete Main
Default : Yes
Forced : Yes
Duration_Source : General_Duration

Audio #2
ID : 3
Format : AC-3
Format/Info : Audio Coding 3
Commercial name : Dolby Digital
Codec ID : A_AC3
Duration : 2 h 12 min
Bit rate mode : Constant
Bit rate : 640 kb/s
Channel(s) : 6 channels
Channel layout : L R C LFE Ls Rs
Sampling rate : 48.0 kHz
Frame rate : 31.250 FPS (1536 SPF)
Compression mode : Lossy
Stream size : 608 MiB (9%)
Title : Dub
Language : Russian
Service kind : Complete Main
Default : No
Forced : No
Duration_Source : General_Duration

Audio #3
ID : 4
Format : E-AC-3
Format/Info : Enhanced AC-3
Commercial name : Dolby Digital Plus
Codec ID : A_EAC3
Duration : 2 h 12 min
Bit rate mode : Constant
Bit rate : 640 kb/s
Channel(s) : 6 channels
Channel layout : L R C LFE Ls Rs
Sampling rate : 48.0 kHz
Frame rate : 31.250 FPS (1536 SPF)
Compression mode : Lossy
Stream size : 608 MiB (9%)
Title : Original
Language : English
Service kind : Complete Main
Default : No
Forced : No
Duration_Source : General_Duration

Text #1
ID : 5
Format : UTF-8
Codec ID : S_TEXT/UTF8
Codec ID/Info : UTF-8 Plain Text
Title : Forced
Language : Russian
Default : Yes
Forced : Yes

Text #2
ID : 6
Format : UTF-8
Codec ID : S_TEXT/UTF8
Codec ID/Info : UTF-8 Plain Text
Title : Full
Language : Russian
Default : No
Forced : No

Text #3
ID : 7
Format : UTF-8
Codec ID : S_TEXT/UTF8
Codec ID/Info : UTF-8 Plain Text
Title : SDH
Language : English
Default : No
Forced : No

pb.wtf



Скачать Будка поцелуев 2 через торрент https://i112.fastpic.ru/big/2020/0724/84/cb4a54f07ad808ac26f1b823dcf2ce84.jpeg Скачать фильм Будка поцелуев 2 через торрент бесплантно в хорошем качестве Описание: Эль и Ной безумно любят друг друга, но обстоятельства судьбы подбрасывают новые испытания. Теперь главная героиня должна ... 10 10 4
Торрент: Зарегистрирован [2020-07-24 10:16] · скачан: 90 раз
Статус: √ проверено
Размер: 6.68 GB
Как cкачать? Как скачать Будка поцелуев 2 через торрент | qTorrent

% Раздел Тема Автор DL S | L
Фильмы 2019-2020 [DVDrip, WEB-DLRip, HDrip] (DUB, MVO) [ 1.46 GB ] Будка поцелуев 2 / The Kissing Booth 2 [2020 Мело WEB-DLRip] DUB [Пифагор / Netflix] bober100 Скачать
3 | 0
Фильмы 2019-2020 [DVDrip, WEB-DLRip, HDrip] (DUB, MVO) [ 2.18 GB ] Будка поцелуев 2 / The Kissing Booth 2 [2020 Мело WEB-DLRip] DUB [Пифагор / Netflix] bober100 Скачать
5 | 0

28-11-2019 20:33  

Отключить всю рекламу на сайте

    Дорогой пользователь! Огромная просьба, поблагодарите релизера, оцените раздачу и оставьте свои комментарий, если Вы скачали Будка поцелуев 2 через торрент бесплатно! Внесите свою лепту в развитие PiratBit!
    Комментировать посты могут только пользователи прошедшие не сложную регистрацию
    Показать сообщения:    

    Будка поцелуев 2 через торрент
    Скачать бесплатно Будка поцелуев 2
    Будка поцелуев 2 скачать торрент
    Будка поцелуев 2 смотреть онлайн
    Cкачать фильм Будка поцелуев 2 бесплатно
    Будка поцелуев 2 скачать торрент в хорошем качестве
    Будка поцелуев 2 смотреть онлайн бесплатно в хорошем качестве


    Вы не можете начинать темы
    Вы не можете отвечать на сообщения
    Вы не можете редактировать свои сообщения
    Вы не можете удалять свои сообщения
    Вы не можете голосовать в опросах
    Вы не можете прикреплять файлы к сообщениям
    Вы можете скачивать файлы