2 сезон

iTunes

MVO

1

2 сезон

iTunes

iTunes

1 сезон

RePack

30

Ultimate

ВАЖНО

ИГРА 18+

pack

RePack

MK11
pack

Легкие деньги

RePack

jed

RePack

fifa19

RePack

RDR2

RePack

NEED FOR SPEED™ PAYBACK

4 сезон

9 сезон

Бесстыжие 9 сезон

Все сериалы

все сериалы на PB.wtf

RePack

FAR CRY 5

Anonymous, добрый вечер, мы не успеваем собрать деньги на оплату серверов за декабрь и январь, помогите нам пожалуйста в это трудное время. В качестве благодарности мы отключим Вам всю рекламу на сайте (укажите свой ник в строку Ваше имя)!

×
  
Magnet ссылка

Человек-паук: Вдали от дома / Spider-Man: Far from Home (Джон Уоттс) [2019 г., фантастика, боевик, приключения, BDRip 720p / 60 FPS, Дубляж] от R.G. HD-Films pb.wtf

Человек-паук: Вдали от дома через торрент pb.wtf

Раздают: 5 [ 0 KB/s ]
Размер: 4.55 GB | Добавлен: 5 мес. 22 д. назад | Торрент скачан:121 раз
Скачать  

24-07-2020 17:43 Человек-паук: Вдали от дома Скачать торрент  

Человек-паук: Вдали от дома / Spider-Man: Far from Home
Год выпуска: 2019
Страна: США
Жанр: фантастика, боевик, приключения
Продолжительность: 02:08:43
Перевод: Дубляж
Субтитры: русские, форсированные

Режиссер: Джон Уоттс

Бюджет: $160 000 000
Премьера в мире: 26 июня 2019

rating

В ролях: Том Холланд, Сэмюэл Л. Джексон, Джейк Джилленхол, Зендея, Коби Смолдерс, Мариса Томей, Джон Фавро, Джейкоб Баталон, Тони Револори, Энгаури Райс

Описание: Питер Паркер вместе с одноклассниками отправляется на летние каникулы в Европу. Однако отдохнуть приятелям вряд ли удастся — по прибытии в Венецию группа попадет в эпицентр сражения. Некое существо, состоящее из воды, появляется из ниоткуда и начинает крушить всё на своём пути, и теперь Питеру придётся спасать европейские архитектурные памятники вместе с загадочным супергероем Мистерио.

Качество: BDRip 720p / 60 FPS
Формат: MKV
Видео кодек: H.264
Аудио кодек: AC3
Видео: x264, 1280 x 536 ( 2,40:1 ), 4655 kbps, 60,000 fps, ( 0.113 bpp)
Аудио#1: Русский, AC-3, 48.0 KHz, 6 ch, 384 Kbps Dub
Релиз от:

скриншот   скриншот   скриншот   скриншот   скриншот   скриншот  Автор рипа: slaventi-69
Общее
Уникальный идентификатор : 233060584221826518459429631483376560969 (0xAF55D5F70C90F4CFA61753A42907EB49)
Полное имя : G:\Spider.Man.Far.from.Home.(2019).BDRip.720p.(60 Fps).mkv
Формат : Matroska
Версия формата : Version 4
Размер файла : 4,55 Гбайт
Продолжительность : 2 ч. 9 м.
Общий поток : 5043 Кбит/сек
Название фильма : Человек-паук: Вдали от дома / Spider-Man: Far from Home (2019) BDRip 720p (60 Fps)
Дата кодирования : UTC 2020-07-20 15:20:54
Программа кодирования : mkvmerge v12.0.0 ('Trust / Lust') 64bit
Библиотека кодирования : libebml v1.3.4 + libmatroska v1.4.5

Видео
Идентификатор : 1
Формат : AVC
Формат/Информация : Advanced Video Codec
Профиль формата : High@L4.1
Настройки формата : CABAC / 8 Ref Frames
Параметр CABAC формата : Да
Параметр RefFrames формата : 8 кадров
Идентификатор кодека : V_MPEG4/ISO/AVC
Продолжительность : 2 ч. 9 м.
Битрейт : 4655 Кбит/сек
Ширина : 1280 пикселей
Высота : 536 пикселей
Соотношение сторон : 2,40:1
Режим частоты кадров : Постоянный
Частота кадров : 60,000 кадров/сек
Цветовое пространство : YUV
Субдискретизация насыщенности : 4:2:0
Битовая глубина : 8 бит
Тип развёртки : Прогрессивная
Бит/(Пиксели*Кадры) : 0.113
Размер потока : 4,20 Гбайт (92%)
Заголовок : slaventi-69 ( R.G. HD-Films | 60 fps )
Библиотека кодирования : x264 core 130 r2273 b3065e6
Настройки программы : cabac=1 / ref=8 / deblock=1:-1:-1 / analyse=0x3:0x113 / me=umh / subme=9 / psy=1 / psy_rd=1.00:0.00 / mixed_ref=1 / me_range=28 / chroma_me=1 / trellis=2 / 8x8dct=1 / cqm=0 / deadzone=21,11 / fast_pskip=0 / chroma_qp_offset=-2 / threads=4 / lookahead_threads=2 / sliced_threads=0 / nr=0 / decimate=1 / interlaced=0 / bluray_compat=0 / constrained_intra=0 / bframes=5 / b_pyramid=2 / b_adapt=2 / b_bias=0 / direct=3 / weightb=1 / open_gop=0 / weightp=2 / keyint=600 / keyint_min=23 / scenecut=40 / intra_refresh=0 / rc=crf / mbtree=0 / crf=16.5 / qcomp=0.60 / qpmin=0 / qpmax=69 / qpstep=4 / ip_ratio=1.40 / pb_ratio=1.30 / aq=1:1.00
Язык : English
Default : Да
Forced : Нет

Аудио
Идентификатор : 2
Формат : AC-3
Формат/Информация : Audio Coding 3
Коммерческое название : Dolby Digital
Идентификатор кодека : A_AC3
Продолжительность : 2 ч. 9 м.
Вид битрейта : Постоянный
Битрейт : 384 Кбит/сек
Каналы : 6 каналов
Channel layout : L R C LFE Ls Rs
Частота : 48,0 КГц
Частота кадров : 31,250 кадров/сек (1536 SPF)
Битовая глубина : 16 бит
Метод сжатия : С потерями
Размер потока : 355 Мбайт (8%)
Заголовок : Dub
Язык : Russian
ServiceKind/String : Complete Main
Default : Да
Forced : Нет

Текст
Идентификатор : 3
Формат : UTF-8
Идентификатор кодека : S_TEXT/UTF8
Идентификатор кодека/Информация : UTF-8 Plain Text
Продолжительность : 2 ч. 8 м.
Битрейт : 0 бит/сек
ElementCount : 12
Размер потока : 507 байт (0%)
Заголовок : русские, форсированные
Язык : Russian
Default : Да
Forced : Нет

Меню
00:00:00.000 : :Chapter 01
00:09:35.033 : :Chapter 02
00:16:06.716 : :Chapter 03
00:25:18.475 : :Chapter 04
00:35:26.499 : :Chapter 05
00:41:57.014 : :Chapter 06
00:49:50.029 : :Chapter 07
00:57:09.509 : :Chapter 08
01:04:50.637 : :Chapter 09
01:15:57.219 : :Chapter 10
01:22:49.089 : :Chapter 11
01:29:25.193 : :Chapter 12
01:36:43.256 : :Chapter 13
01:44:47.364 : :Chapter 14
01:52:17.397 : :Chapter 15
01:57:45.433 : :Chapter 16

Просьба к переливающим на другие сайты, в оформлении указывайте пожалуйста авторство группы R.G. HD-Films pb.wtf



Скачать Человек-паук: Вдали от дома через торрент https://i106.fastpic.ru/big/2019/1029/11/dbe71a420163fdada041a3d77f7b4211.jpg Скачать фильм Человек-паук: Вдали от дома через торрент бесплантно в хорошем качестве Описание: Питер Паркер вместе с одноклассниками отправляется на летние каникулы в Европу. Однако отдохнуть приятелям вряд ли удастся — по ... 10 10 5
Info! Золотая раздача, скачанное не засчитывается.
Торрент: Зарегистрирован [2020-07-24 17:43] · скачан: 121 раз
Статус: √ проверено
Размер: 4.55 GB
Как cкачать? Как скачать Человек-паук: Вдали от дома через торрент | UTorrent

% Раздел Тема Автор DL S | L
3D Фильмы [ 8.63 GB ] Человек-паук: Вдали от дома в 3D / Spider-Man: Far from Home in 3D [2019 BDRip 1080p ] Анаглиф от R.G. HD-Films slaventi-69 Скачать
1 | 0

28-11-2019 20:33  

Отключить всю рекламу на сайте

    Дорогой пользователь! Огромная просьба, поблагодарите релизера, оцените раздачу и оставьте свои комментарий, если Вы скачали Человек-паук: Вдали от дома через торрент бесплатно! Внесите свою лепту в развитие PiratBit!
    Комментировать посты могут только пользователи прошедшие не сложную регистрацию
    Показать сообщения:    

    Человек-паук: Вдали от дома через торрент
    Скачать бесплатно Человек-паук: Вдали от дома
    Человек-паук: Вдали от дома скачать торрент
    Человек-паук: Вдали от дома смотреть онлайн
    Cкачать фильм Человек-паук: Вдали от дома бесплатно
    Человек-паук: Вдали от дома скачать торрент в хорошем качестве
    Человек-паук: Вдали от дома смотреть онлайн бесплатно в хорошем качестве


    Вы не можете начинать темы
    Вы не можете отвечать на сообщения
    Вы не можете редактировать свои сообщения
    Вы не можете удалять свои сообщения
    Вы не можете голосовать в опросах
    Вы не можете прикреплять файлы к сообщениям
    Вы можете скачивать файлы