Всегда рабочее зеркало без VPN и Proxy просто перед .vidak.icu напиши любое слово или цифру, Пример http://tfpf.vidak.icu

MVO

2 сезон

2 сезон

1

1 сезон

iTunes

2 сезон

13

1 сезон

Распродажа

pack

Рекомендуем

Пиратка

30

ВАЖНО

RePack

MK11

RePack

jed

RePack

fifa19

RePack

RDR2

RePack

NEED FOR SPEED™ PAYBACK

Кинопоиск HD

6 сезон

 Острые козырьки 6 сезон

Все сериалы

все сериалы на PB.wtf

RePack

FAR CRY 5

Anonymous, нам критически не хватает 5601 руб. на оплату серверов и переферии за Апрель, помоги нам пожалуйста, вся надежда только на тебя. В благодарность мы отключим тебе всю рекламу на сайте!

×
  
Magnet ссылка

Джонни Мнемоник / Johnny Mnemonic (Роберт Лонго / Robert Longo) [1995, фантастика, боевик, триллер, криминал, BDRip 720p / 60 FPS, MVO (EA Cinema)] pb.wtf

Джонни Мнемоник через торрент pb.wtf

Размер: 3.01 GB | Добавлен: 1 год 9 мес. назад | Торрент скачан:59 раз
Смотреть онлайн Джонни Мнемоник | Скачать    Ребята, помогите собрать деньги на оплату серверов!!!

25-07-2020 07:35 Джонни Мнемоник Скачать торрент  

Джонни Мнемоник / Johnny Mnemonic
Год выпуска: 1995
Страна: Канада, США
Жанр: фантастика, боевик, триллер, криминал
Продолжительность: 01:36:40
Перевод: Профессиональный многоголосый (EA Cinema)
Субтитры: русские, английские

Режиссер: Роберт Лонго / Robert Longo

rating

В ролях: Киану Ривз, Дина Мейер, Айс-Ти, Такеши Китано, Деннис Акаяма, Дольф Лундгрен, Генри Роллинз, Барбара Зукова, Удо Кир, Трейси Туид, Фалконер Абрахам

Описание: В насквозь кибернетизированном будущем самый ценный товар — информация, доставляемая курьерами в самом надежном месте — в их собственном мозгу. Для того, чтобы преуспеть в этом бизнесе, Джонни «стер» воспоминания детства и расширил память сверхсовременных компьютерных приспособлений. Но и этого оказалось мало для информации, которую он взялся доставить. Если ее вовремя не сгрузить, то Джонни погибнет. Ставки велики, и информацию из головы (можно и с головой, но без Джонни) желает получить вездесущая японская мафия, подключающая к столь тонкому делу проповедника…

Качество: BDRip 720p / 60 FPS
Формат: MKV

Видео: x264, 1280 x 720 ( 16:9 ), 4 000 kbps, 59,940 fps, ( 0.072 bpp)
Аудио: Русский, AC-3, 48.0 KHz, 6 ch, 448 Kbps
скриншот   скриншот   скриншот   скриншот   скриншот  

Общее
Уникальный идентификатор : 198704834865347877650926034237140602931 (0x957D28BE756EAAF78749AD27CBA59033)
Полное имя : Z:\На заливку\Джони Мнемонник.1995.BDRip.720p.(60Fps).mkv
Формат : Matroska
Версия формата : Version 4
Размер файла : 3,01 Гбайт
Продолжительность : 1 ч. 36 м.
Общий поток : 4 460 Кбит/сек
Название фильма : Джони Мнемонник.1995.BDRip.720p.(60Fps)
Дата кодирования : UTC 2020-05-11 18:44:52
Программа кодирования : mkvmerge v7.2.0 ('On Every Street') 64bit built on Sep 13 2014 15:52:10
Библиотека кодирования : libebml v1.3.0 + libmatroska v1.4.1

Видео
Идентификатор : 1
Формат : AVC
Формат/Информация : Advanced Video Codec
Профиль формата : High@L4.1
Настройки формата : CABAC / 8 Ref Frames
Параметр CABAC формата : Да
Параметр RefFrames формата : 8 кадров
Идентификатор кодека : V_MPEG4/ISO/AVC
Продолжительность : 1 ч. 36 м.
Битрейт : 4 000 Кбит/сек
Ширина : 1 280 пикселей
Высота : 720 пикселей
Соотношение сторон : 16:9
Режим частоты кадров : Постоянный
Частота кадров : 59,940 кадров/сек
Цветовое пространство : YUV
Субдискретизация насыщенности : 4:2:0
Битовая глубина : 8 бит
Тип развёртки : Прогрессивная
Бит/(Пиксели*Кадры) : 0.072
Размер потока : 2,69 Гбайт (89%)
Библиотека кодирования : x264 core 148 r2638 7599210
Настройки программы : cabac=1 / ref=8 / deblock=1:0:0 / analyse=0x3:0x113 / me=umh / subme=9 / psy=1 / psy_rd=1.00:0.10 / mixed_ref=1 / me_range=32 / chroma_me=1 / trellis=2 / 8x8dct=1 / cqm=0 / deadzone=21,11 / fast_pskip=0 / chroma_qp_offset=-3 / threads=6 / lookahead_threads=1 / sliced_threads=0 / nr=0 / decimate=1 / interlaced=0 / bluray_compat=0 / constrained_intra=0 / bframes=16 / b_pyramid=2 / b_adapt=2 / b_bias=0 / direct=3 / weightb=1 / open_gop=0 / weightp=2 / keyint=250 / keyint_min=25 / scenecut=40 / intra_refresh=0 / rc_lookahead=40 / rc=2pass / mbtree=1 / bitrate=4000 / ratetol=1.0 / qcomp=0.60 / qpmin=0 / qpmax=69 / qpstep=4 / cplxblur=20.0 / qblur=0.5 / vbv_maxrate=14000 / vbv_bufsize=14000 / nal_hrd=none / filler=0 / ip_ratio=1.40 / aq=1:1.00
Язык : English
Default : Да
Forced : Нет

Аудио
Идентификатор : 2
Формат : AC-3
Формат/Информация : Audio Coding 3
Коммерческое название : Dolby Digital
Идентификатор кодека : A_AC3
Продолжительность : 1 ч. 36 м.
Вид битрейта : Постоянный
Битрейт : 448 Кбит/сек
Каналы : 6 каналов
Channel layout : L R C LFE Ls Rs
Частота : 48,0 КГц
Частота кадров : 31,250 кадров/сек (1536 SPF)
Метод сжатия : С потерями
Размер потока : 310 Мбайт (10%)
Заголовок : DVO (EA Cinema)
Язык : Russian
Service kind : Complete Main
Default : Нет
Forced : Нет

Текст #1
Идентификатор : 3
Формат : UTF-8
Идентификатор кодека : S_TEXT/UTF8
Идентификатор кодека/Информация : UTF-8 Plain Text
Продолжительность : 1 ч. 32 м.
Битрейт : 78 бит/сек
Count of elements : 862
Размер потока : 53,1 Кбайт (0%)
Заголовок : Russian
Язык : Russian
Default : Нет
Forced : Нет

Текст #2
Идентификатор : 4
Формат : UTF-8
Идентификатор кодека : S_TEXT/UTF8
Идентификатор кодека/Информация : UTF-8 Plain Text
Продолжительность : 1 ч. 34 м.
Битрейт : 36 бит/сек
Count of elements : 902
Размер потока : 25,1 Кбайт (0%)
Заголовок : English
Язык : English
Default : Нет
Forced : Нет

Текст #3
Идентификатор : 5
Формат : PGS
Режим смешивания : zlib
Идентификатор кодека : S_HDMV/PGS
Идентификатор кодека/Информация : Picture based subtitle format used on BDs/HD-DVDs
Продолжительность : 1 ч. 31 м.
Битрейт : 18,8 Кбит/сек
Count of elements : 2474
Размер потока : 12,3 Мбайт (0%)
Заголовок : Japanese
Язык : Japanese
Default : Нет
Forced : Нет

Меню
00:00:00.000 : en:00:00:00.000
00:06:55.206 : en:00:06:55.206
00:15:55.454 : en:00:15:55.454
00:22:11.914 : en:00:22:11.914
00:33:15.493 : en:00:33:15.493
00:37:56.274 : en:00:37:56.274
00:46:44.969 : en:00:46:44.969
00:54:26.930 : en:00:54:26.930
01:01:41.364 : en:01:01:41.364
01:08:22.557 : en:01:08:22.557
01:16:36.217 : en:01:16:36.217
01:23:23.207 : en:01:23:23.207

pb.wtf



Скачать Джонни Мнемоник через торрент https://pic1.kartinco.top/images/12/gshcl.jpg Скачать, смотреть онлайн Джонни Мнемоник бесплантно в хорошем качестве Описание: В насквозь кибернетизированном будущем самый ценный товар — информация, доставляемая курьерами в самом надежном месте — в их ... 10 10 9
Info! Золотая раздача, скачанное не засчитывается.
Торрент: Зарегистрирован [2020-07-25 07:35] · скачан: 59 раз
Статус: √ проверено
Размер: 3.01 GB
Как cкачать? Как скачать Джонни Мнемоник через торрент | UTorrent

% Раздел Тема Автор DL S | L
Фильмы (Blu-ray, BD-Remux, HDDVD) [ 25.57 GB ] Джонни Мнемоник / Johnny Mnemonic [1995 BD Remux 1080p] [JPN Transfer] DVO+MVO+AVO bober100 Скачать
1 | 0
T Фильмы [HD 720p, 1080p] (Хороший звук DUB, MVO) [ 8.7 GB ] Джонни Мнемоник / Johnny Mnemonic [1995 BDRip 1080p] 2xMVO DVO AVO Леонид Ильич Скачать
1 | 0
Фильмы с авторской озвучкой [ 1.46 GB ] Джонни Мнемоник / Johnny Mnemonic [1995 киберпанк BDRip] [AVO] killermax2013 Скачать
1 | 0
Фильмы с авторской озвучкой [ 1.46 GB ] Джонни Мнемоник / Johnny Mnemonic [1995 киберпанк HDRip] [AVO] killermax2013 Скачать
1 | 0
Фильмы до 2000 г. [ 1.46 GB ] Джонни Мнемоник / Johnny Mnemonic [1995 BDRip] chaga2009 Скачать
1 | 0

28-11-2019 20:33  

Отключить всю рекламу на сайте

    Дорогой пользователь! Огромная просьба, поблагодарите релизера, оцените раздачу и оставьте свои комментарий, если Вы скачали Джонни Мнемоник через торрент бесплатно!
    Комментировать посты могут только пользователи прошедшие не сложную регистрацию
    Показать сообщения:    

    Джонни Мнемоник через торрент
    Скачать бесплатно Джонни Мнемоник
    Джонни Мнемоник скачать торрент
    Джонни Мнемоник смотреть онлайн
    Cкачать фильм Джонни Мнемоник бесплатно
    Джонни Мнемоник скачать торрент в хорошем качестве
    Джонни Мнемоник смотреть онлайн бесплатно в хорошем качестве


    Вы не можете начинать темы
    Вы не можете отвечать на сообщения
    Вы не можете редактировать свои сообщения
    Вы не можете удалять свои сообщения
    Вы не можете голосовать в опросах
    Вы не можете прикреплять файлы к сообщениям
    Вы можете скачивать файлы