Ссылка на приватное зеркало нашего сайта всего за 1$. Внимание количество ограничено!!!

2 сезон

iTunes

1 сезон

1

2 сезон

2 сезон

iTunes

1 сезон

RePack

30

Новинка

ВАЖНО

ИГРА 18+

pack

RePack

MK11
pack

Забери бонус

RePack

jed

!!Акция!!

Alien_Rage

RePack

fifa19

RePack

Assassins Creed: Odyssey

RePack

NEED FOR SPEED™ PAYBACK

4 сезон

9 сезон

Бесстыжие 9 сезон

Все сериалы

все сериалы на PB.wtf

RePack

FAR CRY 5
  

Человек-муравей: Дилогия / Ant-Man: Dilogy (Пейтон Рид / Peyton Reed) [2015-2018, фантастика, боевик, комедия, приключения, BDRip - HEVC 1080p 10 bit 60 FPS] Dub pb.wtf

Человек-муравей: Дилогия через торрент pb.wtf

Размер: 8.46 GB | Добавлен: 4 мес. назад | Торрент скачан:21 раз
Скачать  

25-07-2020 09:21 Человек-муравей: Дилогия Скачать торрент  

Человек-муравей / Ant-Man
««Рожденный ползать взлетит до небес»»


Год выпуска: 2015
Страна: США
Жанр: фантастика, боевик, комедия, приключения

Продолжительность: 01:57:06
Перевод: Дубляж
Субтитры: русские (Full)
Режиссер: Пейтон Рид
В ролях:

Пол Радд (Scott Lang / Ant-Man), Майкл Дуглас (Dr. Hank Pym), Эванджелин Лилли (Hope van Dyne), Кори Столл (Darren Cross / Yellowjacket), Майкл Пенья (Luis), Бобби Каннавале (Paxton), Ти-Ай (Dave), Давид Дастмалчян (Kurt), Эбби Райдер Фортсон (Cassie Lang), Джуди Грир (Maggie Lang), Энтони Маки (Sam Wilson / Falcon), Вуд Харрис (Gale)
Описание:
Вооружившись удивительной способностью уменьшаться в размере, но обладать при этом большой силой, мошенник Скотт Лэнг должен стать героем и помочь своему наставнику, доктору Хэнку Пиму, сохранить в тайне существование костюма Человека-муравья от угроз нового поколения.
Мировая премьера: 29 июня 2015

rating

Качество: BDRip 1080p by DD2D3
Формат: MKV
Видео кодек: V_MPEGH/ISO/HEVC
Аудио кодек: AC3
Видео: V_MPEGH/ISO/HEVC;1920x1040 (1.85:1);4500 Kbps;59,940 fps;0,038 bpp
Аудио: русский; AC3; 640 Kbps; CBR; 6 ch
Навигация по главам: есть

General
Unique ID : 198395472062012086375203875683803253258 (0x954193FAEBE23F05915C221568AACA0A)
Complete name : D:\Человек-муравей Дилогия - Ant-Man Dilogy (2015-2018) BDRip - HEVC 1080p 10 bit 60 FPS\Человек -муравей - Ant-Man (2015) BDRip - HEVC 1080p 10bit 60 FPS.mkv
Format : Matroska
Format version : Version 4
File size : 4.21 GiB
Duration : 1 h 57 min
Overall bit rate : 5 146 kb/s
Movie name : Rip by from DD2D3
Encoded date : UTC 2020-07-25 07:46:52
Writing application : mkvmerge v10.0.0 ('To Drown In You') 32bit
Writing library : libebml v1.3.4 + libmatroska v1.4.5
Attachments : poster

Video
ID : 1
Format : HEVC
Format/Info : High Efficiency Video Coding
Format profile : Main 10@L4.1@Main
Codec ID : V_MPEGH/ISO/HEVC
Duration : 1 h 57 min
Bit rate : 4 501 kb/s
Width : 1 920 pixels
Height : 1 040 pixels
Display aspect ratio : 1.85:1
Frame rate mode : Constant
Frame rate : 59.940 (60000/1001) FPS
Color space : YUV
Chroma subsampling : 4:2:0
Bit depth : 10 bits
Bits/(Pixel*Frame) : 0.038
Stream size : 3.68 GiB (87%)
Writing library : x265 2.3+33-0b7d54dbb71a87a0:[Windows][MSVC 1800][64 bit] 10bit: KG7x [x265.ru]
Encoding settings : cpuid=1173503 / frame-threads=2 / numa-pools=4 / wpp / no-pmode / no-pme / no-psnr / no-ssim / log-level=2 / input-csp=1 / input-res=1920x1040 / interlace=0 / total-frames=421173 / level-idc=41 / high-tier=1 / uhd-bd=0 / ref=3 / no-allow-non-conformance / no-repeat-headers / annexb / no-aud / no-hrd / info / hash=0 / no-temporal-layers / open-gop / min-keyint=25 / keyint=250 / bframes=4 / b-adapt=2 / b-pyramid / bframe-bias=0 / rc-lookahead=20 / lookahead-slices=6 / scenecut=40 / no-intra-refresh / ctu=64 / min-cu-size=8 / no-rect / no-amp / max-tu-size=32 / tu-inter-depth=1 / tu-intra-depth=1 / limit-tu=0 / rdoq-level=0 / dynamic-rd=0.00 / no-ssim-rd / signhide / no-tskip / nr-intra=0 / nr-inter=0 / no-constrained-intra / strong-intra-smoothing / max-merge=2 / limit-refs=3 / no-limit-modes / me=1 / subme=2 / merange=57 / temporal-mvp / weightp / no-weightb / no-analyze-src-pics / deblock=0:0 / no-sao / no-sao-non-deblock / rd=3 / no-early-skip / no-rskip / no-fast-intra / no-tskip-fast / no-cu-lossless / no-b-intra / rdpenalty=0 / psy-rd=4.00 / psy-rdoq=0.00 / no-rd-refine / analysis-mode=0 / no-lossless / cbqpoffs=0 / crqpoffs=0 / rc=abr / bitrate=4500 / qcomp=0.60 / qpstep=1 / stats-write=0 / stats-read=2 / cplxblur=20.0 / qblur=0.5 / ipratio=1.10 / pbratio=1.00 / aq-mode=0 / aq-strength=0.00 / no-cutree / zone-count=0 / no-strict-cbr / qg-size=64 / rc-grain / qpmax=69 / qpmin=0 / sar=1 / overscan=0 / videoformat=5 / range=0 / colorprim=2 / transfer=2 / colormatrix=2 / chromaloc=0 / display-window=0 / max-cll=0,0 / min-luma=0 / max-luma=1023 / log2-max-poc-lsb=8 / vui-timing-info / vui-hrd-info / slices=1 / opt-qp-pps / opt-ref-list-length-pps / no-multi-pass-opt-rps / scenecut-bias=0.05 / no-opt-cu-delta-qp / no-aq-motion / no-hdr / no-hdr-opt / refine-level=5 / no-limit-sao
Default : Yes
Forced : No

Audio
ID : 2
Format : AC-3
Format/Info : Audio Coding 3
Commercial name : Dolby Digital
Codec ID : A_AC3
Duration : 1 h 57 min
Bit rate mode : Constant
Bit rate : 640 kb/s
Channel(s) : 6 channels
Channel layout : L R C LFE Ls Rs
Sampling rate : 48.0 kHz
Frame rate : 31.250 FPS (1536 SPF)
Compression mode : Lossy
Stream size : 536 MiB (12%)
Language : Russian
Service kind : Complete Main
Default : Yes
Forced : No

Text
ID : 3
Format : UTF-8
Codec ID : S_TEXT/UTF8
Codec ID/Info : UTF-8 Plain Text
Duration : 1 h 56 min
Bit rate : 87 b/s
Count of elements : 1537
Stream size : 74.8 KiB (0%)
Title : Full
Language : Russian
Default : No
Forced : No

Menu
00:00:00.000 : en:Chapter 01
00:02:08.837 : en:Chapter 02
00:08:40.186 : en:Chapter 03
00:15:24.841 : en:Chapter 04
00:19:59.740 : en:Chapter 05
00:27:50.210 : en:Chapter 06
00:33:07.235 : en:Chapter 07
00:38:53.957 : en:Chapter 08
00:44:36.465 : en:Chapter 09
00:49:22.459 : en:Chapter 10
00:57:44.252 : en:Chapter 11
01:00:48.812 : en:Chapter 12
01:06:31.529 : en:Chapter 13
01:23:21.288 : en:Chapter 14
01:34:20.530 : en:Chapter 15
01:47:34.239 : en:Chapter 16
скриншот   скриншот   скриншот   скриншот  
Человек-муравей и Оса / Ant-Man and the Wasp
««Real heroes. Not actual size»»


Год выпуска: 2018
Страна: США
Жанр: фантастика, боевик, приключения

Продолжительность: 01:58:06
Перевод: Дубляж - [Лицензия]
Субтитры: русские (Full),
Режиссер: Пейтон Рид
В ролях:

Пол Радд (Scott Lang / Ant-Man), Эванджелин Лилли (Hope Van Dyne / Wasp), Майкл Пенья (Luis), Уолтон Гоггинс (Sonny Burch), Бобби Каннавале (Paxton), Джуди Грир (Maggie), Ти-Ай (Dave), Давид Дастмалчян (Kurt), Ханна Джон-Кэймен (Ava / Ghost), Эбби Райдер Фортсон (Cassie), Рэндолл Парк (Jimmy Woo), Мишель Пфайффер (Janet Van Dyne / Wasp)
Описание:
Скотт Лэнг, известный также как Человек-муравей, уже заслужил право оказаться в команде Мстителей. Но желание быть ближе к дочери удерживает его в родном Сан-Франциско - до тех пор, пока доктор Хэнк Пим, создавший когда-то изменяющий размеры своего владельца чудо-костюм, не призывает Скотта присоединиться к новой опасной миссии. А помогать в противостоянии с коварным врагом Человеку-муравью будет новая напарница - Оса.
Мировая премьера: 25 июня 2018

rating
Качество: BDRip 1080p by DD2D3
Формат: MKV
Видео кодек: V_MPEGH/ISO/HEVC
Аудио кодек: AC3
Видео: V_MPEGH/ISO/HEVC; 1920x804 (2.40:1); 4501 Kbps; 59,940 fps; 0,049 bpp
Аудио: русский; AC3; 640 Kbps; CBR; 6 ch
Навигация по главам: есть

General
Unique ID : 204436234539973618196979315680029772817 (0x99CCFC90A079CFB8A3F2C4F39AF50C11)
Complete name : D:\Человек-муравей Дилогия - Ant-Man Dilogy (2015-2018) BDRip - HEVC 1080p 10 bit 60 FPS\Человек-муравей и Оса - Ant-Man and the Wasp (2018) BDRip - HEVC 1080p 10bit 60 FPS.mkv
Format : Matroska
Format version : Version 4
File size : 4.25 GiB
Duration : 1 h 58 min
Overall bit rate : 5 147 kb/s
Movie name : Rip by DD2D3
Encoded date : UTC 2020-07-25 08:10:43
Writing application : mkvmerge v10.0.0 ('To Drown In You') 32bit
Writing library : libebml v1.3.4 + libmatroska v1.4.5
Attachments : poster

Video
ID : 1
Format : HEVC
Format/Info : High Efficiency Video Coding
Format profile : Main 10@L4.1@Main
Codec ID : V_MPEGH/ISO/HEVC
Duration : 1 h 58 min
Bit rate : 4 502 kb/s
Width : 1 920 pixels
Height : 804 pixels
Display aspect ratio : 2.40:1
Frame rate mode : Constant
Frame rate : 59.940 (60000/1001) FPS
Color space : YUV
Chroma subsampling : 4:2:0
Bit depth : 10 bits
Bits/(Pixel*Frame) : 0.049
Stream size : 3.71 GiB (87%)
Writing library : x265 2.3+33-0b7d54dbb71a87a0:[Windows][MSVC 1800][64 bit] 10bit: KG7x [x265.ru]
Encoding settings : cpuid=1173503 / frame-threads=2 / numa-pools=4 / wpp / no-pmode / no-pme / no-psnr / no-ssim / log-level=2 / input-csp=1 / input-res=1920x804 / interlace=0 / total-frames=424763 / level-idc=41 / high-tier=1 / uhd-bd=0 / ref=3 / no-allow-non-conformance / no-repeat-headers / annexb / no-aud / no-hrd / info / hash=0 / no-temporal-layers / open-gop / min-keyint=25 / keyint=250 / bframes=4 / b-adapt=2 / b-pyramid / bframe-bias=0 / rc-lookahead=20 / lookahead-slices=5 / scenecut=40 / no-intra-refresh / ctu=64 / min-cu-size=8 / no-rect / no-amp / max-tu-size=32 / tu-inter-depth=1 / tu-intra-depth=1 / limit-tu=0 / rdoq-level=0 / dynamic-rd=0.00 / no-ssim-rd / signhide / no-tskip / nr-intra=0 / nr-inter=0 / no-constrained-intra / strong-intra-smoothing / max-merge=2 / limit-refs=3 / no-limit-modes / me=1 / subme=2 / merange=57 / temporal-mvp / weightp / no-weightb / no-analyze-src-pics / deblock=0:0 / no-sao / no-sao-non-deblock / rd=3 / no-early-skip / no-rskip / no-fast-intra / no-tskip-fast / no-cu-lossless / no-b-intra / rdpenalty=0 / psy-rd=4.00 / psy-rdoq=0.00 / no-rd-refine / analysis-mode=0 / no-lossless / cbqpoffs=0 / crqpoffs=0 / rc=abr / bitrate=4500 / qcomp=0.60 / qpstep=1 / stats-write=0 / stats-read=2 / cplxblur=20.0 / qblur=0.5 / ipratio=1.10 / pbratio=1.00 / aq-mode=0 / aq-strength=0.00 / no-cutree / zone-count=0 / no-strict-cbr / qg-size=64 / rc-grain / qpmax=69 / qpmin=0 / sar=1 / overscan=0 / videoformat=5 / range=0 / colorprim=2 / transfer=2 / colormatrix=2 / chromaloc=0 / display-window=0 / max-cll=0,0 / min-luma=0 / max-luma=1023 / log2-max-poc-lsb=8 / vui-timing-info / vui-hrd-info / slices=1 / opt-qp-pps / opt-ref-list-length-pps / no-multi-pass-opt-rps / scenecut-bias=0.05 / no-opt-cu-delta-qp / no-aq-motion / no-hdr / no-hdr-opt / refine-level=5 / no-limit-sao
Default : Yes
Forced : No

Audio
ID : 2
Format : AC-3
Format/Info : Audio Coding 3
Commercial name : Dolby Digital
Codec ID : A_AC3
Duration : 1 h 58 min
Bit rate mode : Constant
Bit rate : 640 kb/s
Channel(s) : 6 channels
Channel layout : L R C LFE Ls Rs
Sampling rate : 48.0 kHz
Frame rate : 31.250 FPS (1536 SPF)
Compression mode : Lossy
Stream size : 541 MiB (12%)
Title : Dub [License]
Language : Russian
Service kind : Complete Main
Default : Yes
Forced : Yes

Text
ID : 3
Format : UTF-8
Codec ID : S_TEXT/UTF8
Codec ID/Info : UTF-8 Plain Text
Duration : 1 h 57 min
Bit rate : 88 b/s
Count of elements : 1781
Stream size : 76.0 KiB (0%)
Title : Full
Language : Russian
Default : No
Forced : No

Menu
00:00:00.000 : en:00:00:00.000
00:04:03.034 : en:00:04:03.034
00:10:16.407 : en:00:10:16.407
00:13:39.861 : en:00:13:39.861
00:21:25.451 : en:00:21:25.451
00:29:07.829 : en:00:29:07.829
00:36:09.084 : en:00:36:09.084
00:40:56.579 : en:00:40:56.579
00:50:17.431 : en:00:50:17.431
00:58:59.077 : en:00:58:59.077
01:04:56.434 : en:01:04:56.434
01:12:54.287 : en:01:12:54.287
01:18:32.124 : en:01:18:32.124
01:24:44.913 : en:01:24:44.913
01:29:47.340 : en:01:29:47.340
01:36:16.270 : en:01:36:16.270
01:43:35.334 : en:01:43:35.334
01:46:59.830 : en:01:46:59.830
скриншот  скриншот  скриншот  скриншот  скриншот  
pb.wtf



Скачать Человек-муравей: Дилогия через торрент https://funkyimg.com/i/36sZe.png Скачать фильм Человек-муравей: Дилогия через торрент бесплантно в хорошем качестве Описание: Вооружившись удивительной способностью уменьшаться в размере, но обладать при этом большой силой, мошенник Скотт Лэнг должен ... 10 10 3
Info! Золотая раздача, скачанное не засчитывается.
Торрент: Зарегистрирован [2020-07-25 09:21] · скачан: 21 раз
Статус: √ проверено
Размер: 8.46 GB
Как cкачать? Как скачать Человек-муравей: Дилогия через торрент | qTorrent

28-11-2019 20:33  

Отключить всю рекламу на сайте

25-07-2020 12:17 Человек-муравей: Дилогия Скачать торрент  

dd2d3, Приветствую! А вы не рассматриваете перейти на общедоступный битрейт? В вашем формате просмотр ограничен компьютером! На сматрТВ даже после обновления дров данный формат видео не поддерживается!pb.wtf



25-07-2020 15:32 Человек-муравей: Дилогия Скачать торрент  

Цитата:

dd2d3, Приветствую! А вы не рассматриваете перейти на общедоступный битрейт? В вашем формате просмотр ограничен компьютером! На сматрТВ даже после обновления дров данный формат видео не поддерживается!

Разница между H.265 и H.264 с точки зрения размера файла, степени сжатия и т. д.

Размер файла: уменьшение битов обратно пропорционально качеству видеоизображения и также положительно влияет на размер файла. H.265 кодирует ту же информацию с более низкими битрейтами, но с тем же качеством видео по сравнению с H.264, что означает, что H.265 обеспечивает значительно лучшее визуальное качество при сжатии до того же размера файла или битрейта.

Степень сжатия: Степень сжатия H.265 почти в два раза выше, чем у H.264, что позволяет дополнительно снизить расчетную скорость потока, чтобы снизить стоимость хранения и передачи.

Использование полосы пропускания: H.265 требует гораздо меньшей пропускной способности по сравнению с кодеками H.264. На самом деле, H.264 требует скорости интернета 32 Мбит / с для трансляции видео 4K, в то время как HEVC может легко сделать то же самое, используя только 15 Мбит / с.

Поэтому использую егоpb.wtf



25-07-2020 18:37 Человек-муравей: Дилогия Скачать торрент  

dd2d3 писал(а):

Цитата:

dd2d3, Приветствую! А вы не рассматриваете перейти на общедоступный битрейт? В вашем формате просмотр ограничен компьютером! На сматрТВ даже после обновления дров данный формат видео не поддерживается!

Разница между H.265 и H.264 с точки зрения размера файла, степени сжатия и т. д.

Размер файла: уменьшение битов обратно пропорционально качеству видеоизображения и также положительно влияет на размер файла. H.265 кодирует ту же информацию с более низкими битрейтами, но с тем же качеством видео по сравнению с H.264, что означает, что H.265 обеспечивает значительно лучшее визуальное качество при сжатии до того же размера файла или битрейта.

Степень сжатия: Степень сжатия H.265 почти в два раза выше, чем у H.264, что позволяет дополнительно снизить расчетную скорость потока, чтобы снизить стоимость хранения и передачи.

Использование полосы пропускания: H.265 требует гораздо меньшей пропускной способности по сравнению с кодеками H.264. На самом деле, H.264 требует скорости интернета 32 Мбит / с для трансляции видео 4K, в то время как HEVC может легко сделать то же самое, используя только 15 Мбит / с.

Поэтому использую его

Это всё понятно! Просто из за этого долго на раздаче данные релизы врятли будут! Так как вариант скачал посмотрел и в топку! Хранить на диске не выгодно так как просмотр только на ПК!pb.wtf



26-07-2020 12:13 Человек-муравей: Дилогия Скачать торрент  

Я их все смотрю на 2 телеках

LG 49LH595V

LG 43LM6500pb.wtf



30-07-2020 19:37 Человек-муравей: Дилогия Скачать торрент  

Поэтому использую его

Это всё понятно! Просто из за этого долго на раздаче данные релизы врятли будут! Так как вариант скачал посмотрел и в топку! Хранить на диске не выгодно так как просмотр только на ПК!
Я посидирую, пока вы все ПК к ТВ не пристроите fireworks

Только бы раздавали, Автора прошу раздать!
Назад в будущее / Back to the Future (Роберт Земекис) [1985, фантастика, BDRip - HEVC 1080p 12 bit 60 FPS] Дубляж - [Лицензия]
Назад в будущее 2 / Back to the Future Part II (Роберт Земекис) [1989, фантастика, BDRip - HEVC 1080p 12 bit 60 FPS] Дубляж - [Лицензия]
Тор 2: Царство тьмы / Thor: The Dark World (Алан Тейлор) [2013 г., фантастика, боевик, приключения, BDRip - HEVC 1080p 12 bit 60 FPS]pb.wtf



30-07-2020 22:38 Человек-муравей: Дилогия Скачать торрент  

Спасибо!
Сейчас заценим релиз от Mastera Короткого!
Качество и размер как всегда высший пилотаж!

p.s Автора прошу раздать!
Назад в будущее / Back to the Future (Роберт Земекис) [1985, фантастика, BDRip - HEVC 1080p 12 bit 60 FPS] Дубляж - [Лицензия]
Назад в будущее 2 / Back to the Future Part II (Роберт Земекис) [1989, фантастика, BDRip - HEVC 1080p 12 bit 60 FPS] Дубляж - [Лицензия]
Тор 2: Царство тьмы / Thor: The Dark World (Алан Тейлор) [2013 г., фантастика, боевик, приключения, BDRip - HEVC 1080p 12 bit 60 FPS]pb.wtf



31-07-2020 15:46 Человек-муравей: Дилогия Скачать торрент  

С раздачей не могу помощь, так как картинки в фильмах менял и сейчас они не пройдут проверку.

Тока Тор 2 могу покаpb.wtf



01-08-2020 19:05 Человек-муравей: Дилогия Скачать торрент  

dd2d3 писал(а):

С раздачей не могу помощь, так как картинки в фильмах менял и сейчас они не пройдут проверку.

Тока Тор 2 могу пока

Спасибо Большое!

Лучший вариант, вернуть как было, раздать, позже выложить трилогию!pb.wtf



02-08-2020 08:23 Человек-муравей: Дилогия Скачать торрент  

Через пару месяцев будет трилогия Тора, Первый Мститель, Мстители. На данный момент DC Сomics перегоняю расширенную вселенную.pb.wtf



02-08-2020 21:36 Человек-муравей: Дилогия Скачать торрент  

dd2d3 писал(а):

Через пару месяцев будет трилогия Тора, Первый Мститель, Мстители. На данный момент DC Сomics перегоняю расширенную вселенную.

Вот это подарок, буду ждать!
Спасибо что ты есть! fireworks pb.wtf



    Дорогой пользователь! Огромная просьба, поблагодарите релизера, оцените раздачу и оставьте свои комментарий, если Вы скачали Человек-муравей: Дилогия через торрент бесплатно! Внесите свою лепту в развитие PiratBit!
    Комментировать посты могут только пользователи прошедшие не сложную регистрацию
    Показать сообщения:    

    Человек-муравей: Дилогия через торрент
    Скачать бесплатно Человек-муравей: Дилогия
    Человек-муравей: Дилогия скачать торрент
    Человек-муравей: Дилогия смотреть онлайн
    Cкачать фильм Человек-муравей: Дилогия бесплатно
    Человек-муравей: Дилогия скачать торрент в хорошем качестве
    Человек-муравей: Дилогия смотреть онлайн бесплатно в хорошем качестве


    Вы не можете начинать темы
    Вы не можете отвечать на сообщения
    Вы не можете редактировать свои сообщения
    Вы не можете удалять свои сообщения
    Вы не можете голосовать в опросах
    Вы не можете прикреплять файлы к сообщениям
    Вы можете скачивать файлы