Ссылка на приватное зеркало всего за 1$. Внимание количество ограничено!!!

iTunes

iTunes

iTunes

1

iTunes

iTunes

iTunes

WEBRip

iTunes

30
pack

$ от Little Big

ВАЖНО

!!Акция!!

Alien_RageХит недели

RePack

Resident Evil 21

ИГРА 18+

pack

RePack

jed

!!Акция!!

Alien_Rage

RePack

fifa19

RePack

Assassins Creed: Odyssey

RePack

NEED FOR SPEED™ PAYBACK

4 сезон

9 сезон

Бесстыжие 9 сезон

Все сериалы

все сериалы на PB.wtf

RePack

FAR CRY 5
  

D - охотник на вампиров: Жажда крови / Vampire Hunter D: Bloodlust (Кавадзири Ёсиаки) [2000 г., Боевик, Мистика, Фэнтези, Вампиры, Сёнэн, BDRip 720p / 60 FPS, Профессиональный (многоголосый) (MC Entertainment)] pb.wtf

D - охотник на вампиров: Жажда крови через торрент pb.wtf

Раздают: 20 [ 161 KB/s ]
Размер: 3.12 GB | Добавлен: 19 д. назад | Торрент скачан:125 раз
Скачать  

25-07-2020 09:48 D - охотник на вампиров: Жажда крови Скачать торрент  

D - охотник на вампиров: Жажда крови / Vampire Hunter D: Bloodlust
Год выпуска: 2000
Страна: Япония
Жанр: Боевик, Мистика, Фэнтези, Вампиры, Сёнэн
Продолжительность: 01:41:44
Перевод: Профессиональный (многоголосый) (MC Entertainment)
Субтитры: русские

Режиссер: Кавадзири Ёсиаки

rating

Описание: Тринадцатое тысячелетие, несколько тысяч лет после ядерного холокоста. В ночи по прежнему властвуют вампиры, но дни их сочтены, а численность тает. Кровопийц истребляют бесстрашные охотники за головами. Один из таких смельчаков - полукровка-дампир по имени D. Он берётся разыскать дочь влиятельного богача, похищенную могущественным вампиром Майерлингом. Одновременно с ним по следу похищенной устремляются и братья Маркус - профессионалы-охотники, также нанятые родственниками девушки, не до конца доверяющими загадочному полукровке. Но когда преследователи расправляются с демоническими приспешниками вампира и настигают Майерлинга и его жертву, оказывается, что девушка без памяти влюблена в своего похитителя...

Качество: BDRip 720p / 60 FPS
Формат: MKV
Видео кодек: H.264
Аудио кодек: AC3
Видео: x264, 1280 x 688 ( 1,85:1 ), 4 000 kbps, 59,940 fps, ( 0.076 bpp)
Аудио#1: Русский, AC-3, 48.0 KHz, 6 ch, 384 Kbps
скриншот   скриншот   скриншот   скриншот   скриншот   скриншот  

Общее
Уникальный идентификатор : 221321857101049709674685779553348428618 (0xA6810A089B5BF4EBBAB769ECAEF7234A)
Полное имя : Z:\На заливку\Ди. Охотник на Вампиров.BDRip.720p.(60Fps).mkv
Формат : Matroska
Версия формата : Version 4
Размер файла : 3,12 Гбайт
Продолжительность : 1 ч. 42 м.
Общий поток : 4 375 Кбит/сек
Название фильма : Ди. Охотник на Вампиров.BDRip.720p.(60Fps)
Дата кодирования : UTC 2020-06-04 15:38:51
Программа кодирования : mkvmerge v7.2.0 ('On Every Street') 64bit built on Sep 13 2014 15:52:10
Библиотека кодирования : libebml v1.3.0 + libmatroska v1.4.1

Видео
Идентификатор : 1
Формат : AVC
Формат/Информация : Advanced Video Codec
Профиль формата : High@L4.1
Настройки формата : CABAC / 8 Ref Frames
Параметр CABAC формата : Да
Параметр RefFrames формата : 8 кадров
Идентификатор кодека : V_MPEG4/ISO/AVC
Продолжительность : 1 ч. 41 м.
Битрейт : 4 000 Кбит/сек
Ширина : 1 280 пикселей
Высота : 688 пикселей
Соотношение сторон : 1,85:1
Режим частоты кадров : Постоянный
Частота кадров : 59,940 кадров/сек
Цветовое пространство : YUV
Субдискретизация насыщенности : 4:2:0
Битовая глубина : 8 бит
Тип развёртки : Прогрессивная
Бит/(Пиксели*Кадры) : 0.076
Размер потока : 2,84 Гбайт (91%)
Библиотека кодирования : x264 core 148 r2638 7599210
Настройки программы : cabac=1 / ref=8 / deblock=1:0:0 / analyse=0x3:0x113 / me=umh / subme=9 / psy=1 / psy_rd=1.00:0.10 / mixed_ref=1 / me_range=32 / chroma_me=1 / trellis=2 / 8x8dct=1 / cqm=0 / deadzone=21,11 / fast_pskip=0 / chroma_qp_offset=-3 / threads=6 / lookahead_threads=1 / sliced_threads=0 / nr=0 / decimate=1 / interlaced=0 / bluray_compat=0 / constrained_intra=0 / bframes=16 / b_pyramid=2 / b_adapt=2 / b_bias=0 / direct=3 / weightb=1 / open_gop=0 / weightp=2 / keyint=250 / keyint_min=25 / scenecut=40 / intra_refresh=0 / rc_lookahead=40 / rc=2pass / mbtree=1 / bitrate=4000 / ratetol=1.0 / qcomp=0.60 / qpmin=0 / qpmax=69 / qpstep=4 / cplxblur=20.0 / qblur=0.5 / vbv_maxrate=14000 / vbv_bufsize=14000 / nal_hrd=none / filler=0 / ip_ratio=1.40 / aq=1:1.00
Язык : English
Default : Да
Forced : Нет

Аудио
Идентификатор : 2
Формат : AC-3
Формат/Информация : Audio Coding 3
Коммерческое название : Dolby Digital
Идентификатор кодека : A_AC3
Продолжительность : 1 ч. 42 м.
Вид битрейта : Постоянный
Битрейт : 384 Кбит/сек
Каналы : 6 каналов
Channel layout : L R C LFE Ls Rs
Частота : 48,0 КГц
Частота кадров : 31,250 кадров/сек (1536 SPF)
Метод сжатия : С потерями
Размер потока : 280 Мбайт (9%)
Заголовок : MC Entertainment
Язык : Russian
Service kind : Complete Main
Default : Да
Forced : Нет

Текст
Идентификатор : 3
Формат : UTF-8
Идентификатор кодека : S_TEXT/UTF8
Идентификатор кодека/Информация : UTF-8 Plain Text
Продолжительность : 1 ч. 34 м.
Битрейт : 64 бит/сек
Count of elements : 693
Размер потока : 44,6 Кбайт (0%)
Default : Да
Forced : Нет

pb.wtf



Скачать D - охотник на вампиров: Жажда крови через торрент http://pic1.kartinco.top/images/12/o4tpd.jpg Скачать фильм D - охотник на вампиров: Жажда крови через торрент бесплантно в хорошем качестве Описание: Тринадцатое тысячелетие, несколько тысяч лет после ядерного холокоста. В ночи по прежнему властвуют вампиры, но дни их сочтены, а ... 8.5 10 6
Info! Золотая раздача, скачанное не засчитывается.
Торрент: Зарегистрирован [2020-07-25 09:48] · скачан: 125 раз
Статус: √ проверено
Размер: 3.12 GB
Как cкачать? Как скачать D - охотник на вампиров: Жажда крови через торрент | qTorrent

28-11-2019 20:33  

Отключить всю рекламу на сайте

25-07-2020 14:09 D - охотник на вампиров: Жажда крови Скачать торрент  

Отличный мульт рекомендую. Кидай вторую часть мультикаpb.wtf



10-08-2020 15:09 D - охотник на вампиров: Жажда крови Скачать торрент  

это ж и есть вторая частьpb.wtf



    Дорогой пользователь! Огромная просьба, поблагодарите релизера, оцените раздачу и оставьте свои комментарий, если Вы скачали D - охотник на вампиров: Жажда крови через торрент бесплатно! Внесите свою лепту в развитие PiratBit!
    Комментировать посты могут только пользователи прошедшие не сложную регистрацию
    Показать сообщения:    

    D - охотник на вампиров: Жажда крови через торрент
    Скачать бесплатно D - охотник на вампиров: Жажда крови
    D - охотник на вампиров: Жажда крови скачать торрент
    D - охотник на вампиров: Жажда крови смотреть онлайн
    Cкачать фильм D - охотник на вампиров: Жажда крови бесплатно
    D - охотник на вампиров: Жажда крови скачать торрент в хорошем качестве
    D - охотник на вампиров: Жажда крови смотреть онлайн бесплатно в хорошем качестве


    Вы не можете начинать темы
    Вы не можете отвечать на сообщения
    Вы не можете редактировать свои сообщения
    Вы не можете удалять свои сообщения
    Вы не можете голосовать в опросах
    Вы не можете прикреплять файлы к сообщениям
    Вы можете скачивать файлы