Ссылка на приватное зеркало нашего сайта всего за 1$. Внимание количество ограничено!!!

2 сезон

iTunes

1 сезон

1

iTunes

iTunes

iTunes

1 сезон

RePack

30

ИГРА 18+

pack

ВАЖНО

!!Акция!!

Alien_RageХит недели

RePack

MK11
pack

Забери бонус

RePack

jed

!!Акция!!

Alien_Rage

RePack

fifa19

RePack

Assassins Creed: Odyssey

RePack

NEED FOR SPEED™ PAYBACK

4 сезон

9 сезон

Бесстыжие 9 сезон

Все сериалы

все сериалы на PB.wtf

RePack

FAR CRY 5
  

Мистер и миссис Смит / Mr. & Mrs. Smith Theatrical Cut (Даг Лайман) [2005 г., боевик, триллер, мелодрама, комедия, криминал, BDRip-AVC 60fps, Дубляж] pb.wtf

Мистер и миссис Смит через торрент pb.wtf

Раздают: 1 [ 0 KB/s ]
Размер: 4.33 GB | Добавлен: 2 мес. 26 д. назад | Торрент скачан:35 раз
Скачать  

25-07-2020 11:47 Мистер и миссис Смит Скачать торрент  

Мистер и миссис Смит / Mr. & Mrs. Smith Theatrical Cut
Год выпуска: 2005
Страна: США
Жанр: боевик, триллер, мелодрама, комедия, криминал
Продолжительность: 01:59:58
Перевод: Дубляж
Субтитры: русские, английские

Режиссер: Даг Лайман

rating

В ролях: Брэд Питт (John Smith), Анджелина Джоли (Jane Smith), Винс Вон (Eddie), Адам Броди (Benjamin Danz), Керри Вашингтон (Jasmine), Кит Дэвид (Father), Крис Вайц (Martin Coleman), Рэйчел Хантли (Suzy Coleman), Мишель Монахэн (Gwen), Стефани Марч (Julie - Associate #1), Дженнифер Моррисон (Jade - Associate #2), Тереза Баррера (Janet - Associate #3)

Описание: Молодая супружеская пара ведет мирную и размеренную жизнь в своем доме за городом. Джейн и Джон Смиты не так давно скрепили свои жизни браком, однако уже успели устать от рутины отношений. Они молоды, красивы, а работа у них - скучнее не придумаешь. Однако пока еще они не в курсе главных секретов своих вторых половинок. Джейн и Джон на самом деле являются профессиональными киллерами. Причем, работают они в разных организациях, конкурирующих между собой. Однако самая интересная часть их семейной жизни начинается в тот момент, когда им поступают указания ликвидировать друг друга. Каждый из супругов, возмущенный и обиженный обманом своей второй половинки, берется за дело. Что, как не охота такого рода способно лучшим образом освежить супружеские отношения наемных убийц?

Качество: BDRip-AVC 60fps
Формат: MKV
Видео кодек: H.264
Аудио кодек: AC3
Видео: x264, 1 024 x 576 ( 16:9 ), 5 173 kbps, 59,940 fps, ( 0.132 bpp)
Аудио#1: Русский, AC-3, 48.0 KHz, 6 ch, 448 Kbps
скриншот   скриншот   скриншот   скриншот   скриншот  

Общее
Уникальный идентификатор : 179546231994622379092393281544720133345 (0x871358B19AD3C165B99A0BB9AE92ACE1)
Полное имя : Z:\На заливку\Мистер и Миссис Смит.2005.Theatrical.Cut. (60Fps).mkv
Формат : Matroska
Версия формата : Version 4
Размер файла : 4,33 Гбайт
Продолжительность : 1 ч. 59 м.
Общий поток : 5 173 Кбит/сек
Название фильма : Мистер и Миссис Смит.2005.Theatrical.Cut. (60Fps)
Дата кодирования : UTC 2020-07-02 04:55:31
Программа кодирования : mkvmerge v7.2.0 ('On Every Street') 64bit built on Sep 13 2014 15:52:10
Библиотека кодирования : libebml v1.3.0 + libmatroska v1.4.1

Видео
Идентификатор : 1
Формат : AVC
Формат/Информация : Advanced Video Codec
Профиль формата : Baseline@L3
Настройки формата : 1 Ref Frames
Параметр CABAC формата : Нет
Параметр RefFrames формата : 1 кадр
Идентификатор кодека : V_MPEG4/ISO/AVC
Продолжительность : 1 ч. 59 м.
Битрейт : 4 669 Кбит/сек
Ширина : 1 024 пикселя
Высота : 576 пикселей
Соотношение сторон : 16:9
Режим частоты кадров : Постоянный
Частота кадров : 59,940 кадров/сек
Цветовое пространство : YUV
Субдискретизация насыщенности : 4:2:0
Битовая глубина : 8 бит
Тип развёртки : Прогрессивная
Бит/(Пиксели*Кадры) : 0.132
Размер потока : 3,96 Гбайт (91%)
Библиотека кодирования : x264 core 148 r2643 5c65704
Настройки программы : cabac=1 / ref=8 / deblock=1:0:0 / analyse=0x1:0x111 / me=hex / subme=7 / psy=1 / psy_rd=1.00:0.00 / mixed_ref=0 / me_range=16 / chroma_me=1 / trellis=1 / 8x8dct=0 / cqm=0 / deadzone=21,11 / fast_pskip=1 / chroma_qp_offset=-2 / threads=6 / lookahead_threads=1 / sliced_threads=0 / nr=0 / decimate=1 / interlaced=0 / bluray_compat=0 / constrained_intra=0 / bframes=0 / weightp=0 / keyint=250 / keyint_min=25 / scenecut=40 / intra_refresh=0 / rc_lookahead=40 / rc=abr / mbtree=1 / bitrate=4669 / ratetol=1.0 / qcomp=0.60 / qpmin=10 / qpmax=51 / qpstep=4 / ip_ratio=1.41 / aq=1:1.00
Язык : English
Default : Да
Forced : Нет

Аудио
Идентификатор : 2
Формат : AC-3
Формат/Информация : Audio Coding 3
Коммерческое название : Dolby Digital
Идентификатор кодека : A_AC3
Продолжительность : 1 ч. 59 м.
Вид битрейта : Постоянный
Битрейт : 448 Кбит/сек
Каналы : 6 каналов
Channel layout : L R C LFE Ls Rs
Частота : 48,0 КГц
Частота кадров : 31,250 кадров/сек (1536 SPF)
Метод сжатия : С потерями
Размер потока : 384 Мбайт (9%)
Заголовок : AC3 5.1 448Kbps (Дубляж - R5)
Язык : Russian
Service kind : Complete Main
Default : Да
Forced : Нет

Текст #1
Идентификатор : 3
Формат : UTF-8
Идентификатор кодека : S_TEXT/UTF8
Идентификатор кодека/Информация : UTF-8 Plain Text
Продолжительность : 1 ч. 51 м.
Битрейт : 64 бит/сек
Count of elements : 1080
Размер потока : 53,1 Кбайт (0%)
Заголовок : R5
Язык : Russian
Default : Нет
Forced : Нет

Текст #2
Идентификатор : 4
Формат : UTF-8
Идентификатор кодека : S_TEXT/UTF8
Идентификатор кодека/Информация : UTF-8 Plain Text
Продолжительность : 1 ч. 51 м.
Битрейт : 49 бит/сек
Count of elements : 1242
Размер потока : 40,8 Кбайт (0%)
Заголовок : SDH, BluRay
Язык : English
Default : Нет
Forced : Нет

Меню
00:00:00.000 : en:Studio Logos
00:00:37.000 : en:The Smith's Go to Marriage Counseling, Opening Credits
00:02:19.000 : en:Police Search for Tourists Traveling Alone
00:03:37.000 : en:John and Jane Drink and Dance
00:04:58.000 : en:John Brings Jane Breakfast
00:06:29.000 : en:John and Jane Go on a Date
00:07:49.000 : en:John and Jane Tell Friends They're Getting Married
00:09:04.000 : en:The Smiths Start a Typical Morning
00:10:38.000 : en:Benjamin Gets an Assignment
00:11:33.000 : en:John Comes Home
00:14:13.000 : en:The Smiths Complain about Marriage
00:17:16.000 : en:The Smiths Go to Separate Jobs
00:22:50.000 : en:The Smiths Go to a Neighbor's Party
00:25:22.000 : en:The Smiths Prepare to Receive New Assignments
00:30:02.000 : en:The Smiths Go After Benjamin
00:34:50.000 : en:The Smiths Try to Figure Out Who Botched Their Jobs
00:37:50.000 : en:John and Jane Discover One Another's Identities
00:39:26.000 : en:The Smiths Have a Tense Dinner
00:46:49.000 : en:The Smiths Tell Their Friends about Their Situations
00:50:13.000 : en:Jane's Team Searches Her House
00:52:55.000 : en:John Visits Jane
00:56:01.000 : en:John Finds a Clue in the Furnace
00:56:59.000 : en:Jane Threatens John
01:00:45.000 : en:John and Jane Tango
01:05:59.000 : en:The Smiths Talk about Their Relationship
01:07:56.000 : en:John and Jane Arrive Home
01:10:16.000 : en:John and Jane Fight with Each Other
01:17:30.000 : en:The Smiths Become Targets
01:18:03.000 : en:The Smiths Reminisce about Past Missions
01:19:48.000 : en:Assassins Attempt to Kill the Smiths
01:23:56.000 : en:The Smiths Learn More about Each Other While Eluding Assassins
01:29:05.000 : en:The Smiths Meet with Eddie for More Information
01:31:05.000 : en:Jane Gets Information on Benjamin
01:31:27.000 : en:The Smiths Go After Benjamin
01:35:33.000 : en:The Smiths Argue about Teamwork
01:36:46.000 : en:The Smiths Learn They Were Set Up
01:39:43.000 : en:The Smiths Escape and Plan to Fight
01:41:37.000 : en:The Smiths Defend Themselves from Assassins
01:47:56.000 : en:The Smiths Prepare for the Final Assault
01:50:01.000 : en:The Smiths Go Out Guns Blazing
01:51:26.000 : en:John and Jane Speak about Their Rekindled Marriage
01:52:26.000 : en:End Credits

pb.wtf



Скачать Мистер и миссис Смит через торрент http://pic1.kartinco.top/images/12/mmcml.jpg Скачать фильм Мистер и миссис Смит через торрент бесплантно в хорошем качестве Описание: Молодая супружеская пара ведет мирную и размеренную жизнь в своем доме за городом. Джейн и Джон Смиты не так давно скрепили свои ... 10 10 6
Торрент: Зарегистрирован [2020-07-25 11:47] · скачан: 35 раз
Статус: # сомнительно
Размер: 4.33 GB
Как cкачать? Как скачать Мистер и миссис Смит через торрент | qTorrent

28-11-2019 20:33  

Отключить всю рекламу на сайте

    Дорогой пользователь! Огромная просьба, поблагодарите релизера, оцените раздачу и оставьте свои комментарий, если Вы скачали Мистер и миссис Смит через торрент бесплатно! Внесите свою лепту в развитие PiratBit!
    Комментировать посты могут только пользователи прошедшие не сложную регистрацию
    Показать сообщения:    

    Мистер и миссис Смит через торрент
    Скачать бесплатно Мистер и миссис Смит
    Мистер и миссис Смит скачать торрент
    Мистер и миссис Смит смотреть онлайн
    Cкачать фильм Мистер и миссис Смит бесплатно
    Мистер и миссис Смит скачать торрент в хорошем качестве
    Мистер и миссис Смит смотреть онлайн бесплатно в хорошем качестве


    Вы не можете начинать темы
    Вы не можете отвечать на сообщения
    Вы не можете редактировать свои сообщения
    Вы не можете удалять свои сообщения
    Вы не можете голосовать в опросах
    Вы не можете прикреплять файлы к сообщениям
    Вы можете скачивать файлы