Ссылка на приватное зеркало всего за 1$. Внимание количество ограничено!!!

iTunes

iTunes

iTunes

1

iTunes

iTunes

iTunes

WEBRip

iTunes

30
pack

$ от Little Big

ВАЖНО

!!Акция!!

Alien_RageХит недели

RePack

Resident Evil 21

ИГРА 18+

pack

RePack

jed

!!Акция!!

Alien_Rage

RePack

fifa19

RePack

Assassins Creed: Odyssey

RePack

NEED FOR SPEED™ PAYBACK

4 сезон

9 сезон

Бесстыжие 9 сезон

Все сериалы

все сериалы на PB.wtf

RePack

FAR CRY 5
  

Телемертвецы / The Video Dead (Роберт Скотт) [1987 г., Ужасы, комедия, BDRip 720p] DVO (НТВ+), AVO (Михалёв), VO (Диктор D.F.V.) pb.wtf

Телемертвецы через торрент pb.wtf

Раздают: 7 [ 0 KB/s ]
Размер: 4.25 GB | Добавлен: 17 д. назад | Торрент скачан:56 раз
Скачать  

26-07-2020 14:04 Телемертвецы Скачать торрент  

Телемертвецы / The Video Dead
Год выпуска: 1987

Страна: США

Жанр: Ужасы, комедия

Продолжительность: 01:30:24

Перевод: Профессиональный (двухголосый), авторский (одноголосый), любительский (одноголосый)

Субтитры: Русские, английские

Режиссер: Роберт Скотт

rating

В ролях: Майкл Ст. Майклс, Тадеус Голас, Дуглас Белл, Аль Миллан, Роксанна Огесен, Лори-Майкл Ригетт, Джордж Кернан, Роки Дюваль, Сэм Дэвид МакКлелланд, Дженнифер Миро, Виктория Бэстел, Либби Расслер, Гаррет Дресслер, Мелисса Мартин, Клифф Уоттс

Описание: Из-за ошибки почтовой службы телевизор, направленный в институт оккультных наук, попадает не по адресу. Если этот телевизор включить, он будет показывать только один фильм — «Кровавые кошмары зомби». Если его выключить, он всё равно будет показывать этот фильм. А потом и сами зомби вылазят из телевизора. Но если делать вид, что они обыкновенные живые люди и не бояться их, то мертвецы не тронут...
Качество: BDRip 720p
Формат: MKV
Видео: MPEG-4 AVC, 5566 Кбит/с, 1280x694
Аудио#1: Русский, AC3, 2 ch, 192 Кбит/сек - DVO (НТВ+)
Аудио#2: Русский, AC3, 2 ch, 192 Кбит/сек - AVO (Михалёв)
Аудио#3: Русский, AC3, 2 ch, 192 Кбит/сек - VO (Диктор D.F.V)
Аудио#4: Английский, AC3, 6 ch, 448 Кбит/сек
Видео
Идентификатор : 1
Формат : AVC
Формат/Информация : Advanced Video Codec
Профиль формата : High@L4.1
Настройки формата : CABAC / 9 Ref Frames
Параметр CABAC формата : Да
Параметр RefFrames формата : 9 кадров
Идентификатор кодека : V_MPEG4/ISO/AVC
Продолжительность : 1 ч. 30 м.
Битрейт : 5566 Кбит/сек
Ширина : 1280 пикселей
Высота : 694 пикселя
Соотношение сторон : 1,85:1
Режим частоты кадров : Постоянный
Частота кадров : 23,976 (24000/1001) кадра/сек
Цветовое пространство : YUV
Субдискретизация насыщенности : 4:2:0
Битовая глубина : 8 бит
Тип развёртки : Прогрессивная
Бит/(Пиксели*Кадры) : 0.261
Размер потока : 3,51 Гбайт (83%)
Библиотека кодирования : x264 core 148 r2638 7599210
Настройки программы : cabac=1 / ref=9 / deblock=1:-3:-2 / analyse=0x3:0x113 / me=umh / subme=10 / psy=1 / psy_rd=1.00:0.00 / mixed_ref=1 / me_range=32 / chroma_me=1 / trellis=2 / 8x8dct=1 / cqm=0 / deadzone=21,11 / fast_pskip=0 / chroma_qp_offset=-2 / threads=6 / lookahead_threads=1 / sliced_threads=0 / nr=0 / decimate=1 / interlaced=0 / bluray_compat=0 / constrained_intra=0 / bframes=9 / b_pyramid=2 / b_adapt=2 / b_bias=0 / direct=1 / weightb=1 / open_gop=0 / weightp=2 / keyint=250 / keyint_min=23 / scenecut=40 / intra_refresh=0 / rc_lookahead=60 / rc=crf / mbtree=0 / crf=18.0 / qcomp=0.60 / qpmin=0 / qpmax=69 / qpstep=4 / vbv_maxrate=35000 / vbv_bufsize=45000 / crf_max=0.0 / nal_hrd=none / filler=0 / ip_ratio=1.40 / pb_ratio=1.30 / aq=2:1.00
Язык : English
Default : Да
Forced : Нет

Аудио #1
Идентификатор : 2
Формат : AC-3
Формат/Информация : Audio Coding 3
Коммерческое название : Dolby Digital
Идентификатор кодека : A_AC3
Продолжительность : 1 ч. 30 м.
Вид битрейта : Постоянный
Битрейт : 192 Кбит/сек
Каналы : 2 канала
ChannelLayout : L R
Частота : 48,0 КГц
Частота кадров : 31,250 кадров/сек (1536 SPF)
Метод сжатия : С потерями
Размер потока : 124 Мбайт (3%)
Заголовок : DVO ( НТВ+)
Язык : Russian
ServiceKind/String : Complete Main
Default : Да
Forced : Нет

Аудио #2
Идентификатор : 3
Формат : AC-3
Формат/Информация : Audio Coding 3
Коммерческое название : Dolby Digital
Идентификатор кодека : A_AC3
Продолжительность : 1 ч. 30 м.
Вид битрейта : Постоянный
Битрейт : 192 Кбит/сек
Каналы : 2 канала
ChannelLayout : L R
Частота : 48,0 КГц
Частота кадров : 31,250 кадров/сек (1536 SPF)
Метод сжатия : С потерями
Размер потока : 124 Мбайт (3%)
Заголовок : AVO (Михалёв)
Язык : Russian
ServiceKind/String : Complete Main
Default : Нет
Forced : Нет

Аудио #3
Идентификатор : 4
Формат : AC-3
Формат/Информация : Audio Coding 3
Коммерческое название : Dolby Digital
Идентификатор кодека : A_AC3
Продолжительность : 1 ч. 30 м.
Вид битрейта : Постоянный
Битрейт : 192 Кбит/сек
Каналы : 2 канала
ChannelLayout : L R
Частота : 48,0 КГц
Частота кадров : 31,250 кадров/сек (1536 SPF)
Метод сжатия : С потерями
Размер потока : 124 Мбайт (3%)
Заголовок : VO (Диктор D.F.V)
Язык : Russian
ServiceKind/String : Complete Main
Default : Нет
Forced : Нет

Аудио #4
Идентификатор : 5
Формат : AC-3
Формат/Информация : Audio Coding 3
Коммерческое название : Dolby Digital
Идентификатор кодека : A_AC3
Продолжительность : 1 ч. 30 м.
Вид битрейта : Постоянный
Битрейт : 448 Кбит/сек
Каналы : 6 каналов
ChannelLayout : L R C LFE Ls Rs
Частота : 48,0 КГц
Частота кадров : 31,250 кадров/сек (1536 SPF)
Метод сжатия : С потерями
Размер потока : 290 Мбайт (7%)
Язык : English
ServiceKind/String : Complete Main
Default : Нет
Forced : Нет

Текст #1
Идентификатор : 6
Формат : UTF-8
Идентификатор кодека : S_TEXT/UTF8
Идентификатор кодека/Информация : UTF-8 Plain Text
Язык : Russian
Default : Нет
Forced : Нет

Текст #2
Идентификатор : 7
Формат : UTF-8
Идентификатор кодека : S_TEXT/UTF8
Идентификатор кодека/Информация : UTF-8 Plain Text
Язык : English
Default : Нет
Forced : Нет

Меню
00:00:00.000 : en:00:00:00.000
00:07:26.279 : en:00:07:26.279
00:13:38.651 : en:00:13:38.651
00:22:11.539 : en:00:22:11.539
00:33:35.931 : en:00:33:35.931
00:42:32.383 : en:00:42:32.383
00:52:15.341 : en:00:52:15.341
01:01:13.503 : en:01:01:13.503
01:12:03.152 : en:01:12:03.152
01:16:46.811 : en:01:16:46.811
01:24:12.881 : en:01:24:12.881
01:26:50.414 : en:01:26:50.414

скриншот   скриншот   скриншот   скриншот   скриншот  

pb.wtf



Скачать Телемертвецы через торрент http://pic1.kartinco.top/images/12/l8z1c.jpg Скачать фильм Телемертвецы через торрент бесплантно в хорошем качестве Описание: Из-за ошибки почтовой службы телевизор, направленный в институт оккультных наук, попадает не по адресу. Если этот телевизор ... 9.7 10 6
Торрент: Зарегистрирован [2020-07-26 14:04] · скачан: 56 раз
Статус: √ проверено
Размер: 4.25 GB
Как cкачать? Как скачать Телемертвецы через торрент | qTorrent

28-11-2019 20:33  

Отключить всю рекламу на сайте

26-07-2020 15:28 Телемертвецы Скачать торрент  

Как же я боялся его в видеосалоне.pb.wtf



27-07-2020 12:03 Телемертвецы Скачать торрент  

Во! pb.wtf



27-07-2020 20:14 Телемертвецы Скачать торрент  

...вылазят.....pb.wtf



    Дорогой пользователь! Огромная просьба, поблагодарите релизера, оцените раздачу и оставьте свои комментарий, если Вы скачали Телемертвецы через торрент бесплатно! Внесите свою лепту в развитие PiratBit!
    Комментировать посты могут только пользователи прошедшие не сложную регистрацию
    Показать сообщения:    

    Телемертвецы через торрент
    Скачать бесплатно Телемертвецы
    Телемертвецы скачать торрент
    Телемертвецы смотреть онлайн
    Cкачать фильм Телемертвецы бесплатно
    Телемертвецы скачать торрент в хорошем качестве
    Телемертвецы смотреть онлайн бесплатно в хорошем качестве


    Вы не можете начинать темы
    Вы не можете отвечать на сообщения
    Вы не можете редактировать свои сообщения
    Вы не можете удалять свои сообщения
    Вы не можете голосовать в опросах
    Вы не можете прикреплять файлы к сообщениям
    Вы можете скачивать файлы