Ссылка на приватное зеркало всего за 1$. Внимание количество ограничено!!!

iTunes

iTunes

iTunes

1

iTunes

iTunes

iTunes

WEBRip

iTunes

30
pack

$ от Little Big

ВАЖНО

!!Акция!!

Alien_RageХит недели

RePack

Resident Evil 21

ИГРА 18+

pack

RePack

jed

!!Акция!!

Alien_Rage

RePack

fifa19

RePack

Assassins Creed: Odyssey

RePack

NEED FOR SPEED™ PAYBACK

4 сезон

9 сезон

Бесстыжие 9 сезон

Все сериалы

все сериалы на PB.wtf

RePack

FAR CRY 5
  

Еноты-убийцы 2: Темное рождество в темноте / Killer Raccoons 2: Dark Christmas in the Dark (Трэвис Ирвин) [2020, Комедия, WEBRip 720p] [MVO] (HDRezka Studio) pb.wtf

Еноты-убийцы 2: Темное рождество в темноте через торрент pb.wtf

Раздают: 3 [ 0 KB/s ]
Размер: 2.91 GB | Добавлен: 16 д. назад | Торрент скачан:78 раз
Скачать  

28-07-2020 11:14 Еноты-убийцы 2: Темное рождество в темноте Скачать торрент  

Еноты-убийцы 2: Темное рождество в темноте / Killer Raccoons 2: Dark Christmas in the Dark
Год выпуска: 2020
Страна: США
Жанр: комедия
Продолжительность: 01:35:54
Перевод: Профессиональный (многоголосый закадровый) *HDRezka Studio *
Субтитры: Русские (форс.)

Режиссер: Трэвис Ирвин

В ролях: Янг Миллер, Рон Линч, Том Лайонс, Джеймс Майерс, Зак Ридмайер, Колин Скианамбло, Брискотт Стивенсон, Ник Тернер, Дрю Уллман, Ник Ваттеротт

Описание: В сочельник бывший студент Кейси Смоллвуд выходит из тюрьмы, где он провел 10 лет, и садится на поезд, который впоследствии захватывает разъяренная банда высокоинтеллектуальных террористов-енотов. И Кейси, естественно, дает им бой.

rating

Качество: WEBRip 720p
Формат: MKV
Видео: MPEG-4 AVC, 4 071 Кбит/с, 1272x712
Аудио: AC3, 2 ch, 192 Кбит/с
скриншот   скриншот   скриншот  
General
Unique ID : 17307099416031386979727971668015000228 (0xD0539E1CB14FD807E85EE2716412AA4)
Complete name : G:\ФИЛЬМЫ\Killer.Raccoons.2.Dark.Christmas.in.the.Dark.2020.WEBRip.720p.rus.UNCENSORED.2.0.HDREZKA.STUDIO.mkv
Format : Matroska
Format version : Version 4
File size : 2.91 GiB
Duration : 1 h 35 min
Overall bit rate mode : Variable
Overall bit rate : 4 337 kb/s
Encoded date : UTC 2020-07-24 17:00:14
Writing application : mkvmerge v28.2.0 ('The Awakening') 64-bit
Writing library : libebml v1.3.6 + libmatroska v1.4.9

Video
ID : 1
Format : AVC
Format/Info : Advanced Video Codec
Format profile : High@L4.1
Format settings : CABAC / 1 Ref Frames
Format settings, CABAC : Yes
Format settings, Reference : 1 frame
Codec ID : V_MPEG4/ISO/AVC
Duration : 1 h 35 min
Bit rate mode : Variable
Bit rate : 4 058 kb/s
Maximum bit rate : 2 000 kb/s
Width : 1 272 pixels
Height : 712 pixels
Display aspect ratio : 16:9
Frame rate mode : Constant
Frame rate : 23.976 (24000/1001) FPS
Color space : YUV
Chroma subsampling : 4:2:0
Bit depth : 8 bits
Scan type : Progressive
Bits/(Pixel*Frame) : 0.187
Stream size : 2.72 GiB (94%)
Default : Yes
Forced : No
Duration_Source : General_Duration

Audio
ID : 2
Format : AC-3
Format/Info : Audio Coding 3
Commercial name : Dolby Digital
Codec ID : A_AC3
Duration : 1 h 35 min
Bit rate mode : Constant
Bit rate : 192 kb/s
Channel(s) : 2 channels
Channel layout : L R
Sampling rate : 48.0 kHz
Frame rate : 31.250 FPS (1536 SPF)
Compression mode : Lossy
Stream size : 132 MiB (4%)
Language : Russian
Service kind : Complete Main
Default : Yes
Forced : No
Duration_Source : General_Duration

Text
ID : 3
Format : UTF-8
Codec ID : S_TEXT/UTF8
Codec ID/Info : UTF-8 Plain Text
Language : Russian
Default : No
Forced : No

pb.wtf



Скачать Еноты-убийцы 2: Темное рождество в темноте через торрент https://i112.fastpic.ru/big/2020/0728/23/c751aa29c8e6ba13ce3958040ecc8223.jpeg Скачать фильм Еноты-убийцы 2: Темное рождество в темноте через торрент бесплантно в хорошем качестве Описание: В сочельник бывший студент Кейси Смоллвуд выходит из тюрьмы, где он провел 10 лет, и садится на поезд, который впоследствии ... 8.5 10 8
Торрент: Зарегистрирован [2020-07-28 11:14] · скачан: 78 раз
Статус: T временная
Размер: 2.91 GB
Как cкачать? Как скачать Еноты-убийцы 2: Темное рождество в темноте через торрент | qTorrent



Последний раз редактировалось: killermax2013 (2020-07-28 11:23), всего редактировалось 1 раз

28-11-2019 20:33  

Отключить всю рекламу на сайте

28-07-2020 11:19 Еноты-убийцы 2: Темное рождество в темноте Скачать торрент  

А чё был Еноты-убийцы 1?.... pb.wtf
Kkillermax2013 писал(а):

наверное имеется ввиду что фильм про двух енотов ))



28-07-2020 12:18 Еноты-убийцы 2: Темное рождество в темноте Скачать торрент  

Я против легализации в стране такой дури что они там курнули, понесет наших кинематографистов-не остановишь ((pb.wtf





Последний раз редактировалось: tokim (2020-07-28 18:10), всего редактировалось 1 раз

28-07-2020 13:02 Еноты-убийцы 2: Темное рождество в темноте Скачать торрент  

Блин че за треш такой, прям интересно даже стало думаю надо скачать заценить че это такое. pb.wtf



28-07-2020 13:35 Еноты-убийцы 2: Темное рождество в темноте Скачать торрент  

Вы ОхРеНеЕте от этого фильма!!!!!!! Я такого ужаса давно не смотрел!pb.wtf



28-07-2020 17:31 Еноты-убийцы 2: Темное рождество в темноте Скачать торрент  

Еноты-убийцы ,ежи-террористы,белки -насильники пфф ха ха ха WTF javascript:emoticon(' ')pb.wtf



28-07-2020 20:31 Еноты-убийцы 2: Темное рождество в темноте Скачать торрент  

Не, я понимаю- "томаты убийцы", 1978г. Но такое убожество для 2020г- это отровенная деградация... Хотя пипл хавает, это все объясняет...pb.wtf



28-07-2020 21:06 Еноты-убийцы 2: Темное рождество в темноте Скачать торрент  

любую херню можно сказать и найдутся люди , кто это посмотрит и оценит. главное авторитет не прозябить.pb.wtf



29-07-2020 09:59 Еноты-убийцы 2: Темное рождество в темноте Скачать торрент  

что я посмотрел?pb.wtf



29-07-2020 14:56 Еноты-убийцы 2: Темное рождество в темноте Скачать торрент  

rage777 писал(а):

что я посмотрел?

Енотов убийц)) pb.wtf



03-08-2020 20:42 Еноты-убийцы 2: Темное рождество в темноте Скачать торрент  

Demon83666 писал(а):

rage777 писал(а):

что я посмотрел?

Енотов убийц))

2pb.wtf



    Дорогой пользователь! Огромная просьба, поблагодарите релизера, оцените раздачу и оставьте свои комментарий, если Вы скачали Еноты-убийцы 2: Темное рождество в темноте через торрент бесплатно! Внесите свою лепту в развитие PiratBit!
    Комментировать посты могут только пользователи прошедшие не сложную регистрацию
    Показать сообщения:    

    Еноты-убийцы 2: Темное рождество в темноте через торрент
    Скачать бесплатно Еноты-убийцы 2: Темное рождество в темноте
    Еноты-убийцы 2: Темное рождество в темноте скачать торрент
    Еноты-убийцы 2: Темное рождество в темноте смотреть онлайн
    Cкачать фильм Еноты-убийцы 2: Темное рождество в темноте бесплатно
    Еноты-убийцы 2: Темное рождество в темноте скачать торрент в хорошем качестве
    Еноты-убийцы 2: Темное рождество в темноте смотреть онлайн бесплатно в хорошем качестве


    Вы не можете начинать темы
    Вы не можете отвечать на сообщения
    Вы не можете редактировать свои сообщения
    Вы не можете удалять свои сообщения
    Вы не можете голосовать в опросах
    Вы не можете прикреплять файлы к сообщениям
    Вы можете скачивать файлы