Ссылка на приватное зеркало всего за 1$. Внимание количество ограничено!!!

iTunes

iTunes

iTunes

1

iTunes

iTunes

iTunes

WEBRip

iTunes

30
pack

$ от Little Big

ВАЖНО

!!Акция!!

Alien_RageХит недели

RePack

Resident Evil 21

ИГРА 18+

pack

RePack

jed

!!Акция!!

Alien_Rage

RePack

fifa19

RePack

Assassins Creed: Odyssey

RePack

NEED FOR SPEED™ PAYBACK

4 сезон

9 сезон

Бесстыжие 9 сезон

Все сериалы

все сериалы на PB.wtf

RePack

FAR CRY 5
  

Эдем / Eden (Шиам Мадиражу) [2014, Триллер, драма, BDRip 1080p] MVO [iTunes] pb.wtf

Эдем через торрент pb.wtf

Раздают: 5 [ 0 KB/s ]
Размер: 8.99 GB | Добавлен: 15 д. назад | Торрент скачан:60 раз
Скачать  

29-07-2020 16:22 Эдем Скачать торрент  

Эдем | Eden
Год выпуска: 2014
Страна: Испания, Малайзия
Выпущено: Gobsmack, H&H Creative Ventures, Ombra Films
Жанр: Триллер, драма
Продолжительность: 01:36:27
Перевод: Профессиональный (многоголосый) | iTunes
Субтитры: отсутствуют

Режиссер: Шиам Мадиражу

rating

В ролях:


Джессика Лаундес (Elena), Джеймс Римар (Coach Defoe), Санг Кенг (Connie), Диего Бонета (Arnie), Нэйт Паркер (Slim), Роб Майес (Markese), Юджин Саймон (Kennefick), Итан Пек (Andreas), Марио Касас (Felix), Джои Поллари (Georgie), Мэтт Тестро (Doug), Майкл Карделль (McKenna)

Описание: После падения самолета у берегов необитаемого острова, выжившие члены международной команды по футболу сталкиваются одновременно и с дикой природой, и с ухудшением психики своих же товарищей.

Качество: BDRip 1080p
Формат: MKV

Видео: MPEG-4 AVC, 11.5 Mb/s, 1920x808, 23.976 FPS
Аудио #1 Russian: 48 kHz, AC3 Dolby Digital, 3/2 (L, C, R, l, r) + LFE ch, ~384 Kbps | iTunes
Аудио #2 English: 48 kHz, Digital Theater Systems, 3/2 (L, C, R, l, r) + LFE ch, ~1509 Kbps | Original
скриншот  скриншот  скриншот  скриншот  

Complete name: Eden.2014.1080p.BluRay.ELEKTRI4KA.UNIONGANG.mkv
Format: Matroska
Format version: Version 4 / Version 2
File size: 8.99 GiB
Duration: 1 h 36 min
Overall bit rate: 13.4 Mb/s
Movie name: .ELEKTRI4KA.UNIONGANG.
Encoded date: UTC 2020-07-27 21:11:29
Writing application: mkvmerge v8.3.0 ('Over the Horizon') 64bit
Writing library: libebml v1.3.1 + libmatroska v1.4.2

Video
ID: 1
Format: AVC
Format/Info: Advanced Video Codec
Format profile: High@L4.1
Format settings, CABAC: Yes
Format settings, Reference frames: 5 frames
Codec ID: V_MPEG4/ISO/AVC
Duration: 1 h 36 min
Bit rate: 11.5 Mb/s
Width: 1 920 pixels
Height: 808 pixels
Display aspect ratio: 2.40:1
Frame rate mode: Constant
Frame rate: 23.976 (24000/1001) FPS
Color space: YUV
Chroma subsampling: 4:2:0
Bit depth: 8 bits
Scan type: Progressive
Bits/(Pixel*Frame): 0.309
Stream size: 7.72 GiB (86%)
Writing library: x264 core 148 r2705kMod 3f5ed56
Encoding settings: cabac=1 / ref=5 / deblock=1:0:0 / analyse=0x3:0x133 / me=umh / subme=7 / psy=1 / fade_compensate=0.00 / psy_rd=1.00:0.00 / mixed_ref=1 / me_range=16 / chroma_me=1 / trellis=1 / 8x8dct=1 / cqm=0 / deadzone=21, 11 / fast_pskip=0 / chroma_qp_offset=-2 / threads=18 / lookahead_threads=3 / sliced_threads=0 / nr=0 / decimate=1 / interlaced=0 / bluray_compat=0 / constrained_intra=0 / fgo=0 / bframes=3 / b_pyramid=2 / b_adapt=2 / b_bias=0 / direct=3 / weightb=1 / open_gop=0 / weightp=2 / keyint=250 / keyint_min=23 / scenecut=40 / intra_refresh=0 / rc_lookahead=50 / rc=2pass / mbtree=1 / bitrate=11476 / ratetol=1.0 / qcomp=0.60 / qpmin=0 / qpmax=69 / qpstep=4 / cplxblur=20.0 / qblur=0.5 / ip_ratio=1.40 / aq=1:1.00
Language: English
Default: Yes
Forced: No

Audio #1
ID: 2
Format: AC-3
Format/Info: Audio Coding 3
Mode extension: CM (complete main)
Format settings, Endianness: Big
Codec ID: A_AC3
Duration: 1 h 36 min
Bit rate mode: Constant
Bit rate: 384 kb/s
Channel(s): 6 channels
Channel positions: Front: L C R, Side: L R, LFE
Sampling rate: 48.0 kHz
Frame rate: 31.250 FPS (1536 spf)
Bit depth: 16 bits
Compression mode: Lossy
Stream size: 264 MiB (3%)
Title: iTunes
Language: Russian
Default: Yes
Forced: No

Audio #2
ID: 3
Format: DTS
Format/Info: Digital Theater Systems
Mode: 16
Format settings, Endianness: Big
Codec ID: A_DTS
Duration: 1 h 36 min
Bit rate mode: Constant
Bit rate: 1 509 kb/s
Channel(s): 6 channels
Channel positions: Front: L C R, Side: L R, LFE
Sampling rate: 48.0 kHz
Frame rate: 93.750 FPS (512 spf)
Bit depth: 24 bits
Compression mode: Lossy
Stream size: 1.02 GiB (11%)
Language: English
Default: No
Forced: No

Menu
00:00:00.000: en:Глава 1
00:01:33.677: en:Глава 2
00:10:22.205: en:Глава 3
00:17:34.637: en:Глава 4
00:22:02.696: en:Глава 5
00:27:06.833: en:Глава 6
00:32:16.934: en:Глава 7
00:38:44.780: en:Глава 8
00:47:42.150: en:Глава 9
00:53:33.626: en:Глава 10
01:00:56.652: en:Глава 11
01:06:44.833: en:Глава 12
01:15:53.882: en:Глава 13
01:19:24.801: en:Глава 14

pb.wtf



Скачать Эдем через торрент https://i4.imageban.ru/out/2020/07/27/e7f1fb9df1266f25fd287d352b1b4ba5.png Скачать фильм Эдем через торрент бесплантно в хорошем качестве Описание: После падения самолета у берегов необитаемого острова, выжившие члены международной команды по футболу сталкиваются одновременно ... 10 10 2
Торрент: Зарегистрирован [2020-07-29 16:22] · скачан: 60 раз
Статус: T временная
Размер: 8.99 GB
Как cкачать? Как скачать Эдем через торрент | qTorrent

% Раздел Тема Автор DL S | L
Фильмы 2014 [DVDrip, WEB-DLRip, HDrip] [ 743 MB ] Эдем / Eden [2014 HDRip] MVO bober100 Скачать
2 | 0
Фильмы 2014 [DVDrip, WEB-DLRip, HDrip] [ 1.46 GB ] Эдем / Eden [2014 HDRip] MVO bober100 Скачать
7 | 0
Фильмы (WEB-DL 720p, 1080p) [ 480 MB ] Far Cry 5: У врат Эдема / Far Cry 5: Inside Eden's Gate [2018 короткометражка WEB-DLRip 1080p HEVC] MVO -Lexx- Скачать
1 | 0
T Фильмы (мультфильмы) cо спонсором показа (Новинки AVI/MKV) [ 700 MB ] Фар Край 5: "За вратами Эдема" / Far Cry 5: Inside Eden's Gate [2018 WEB-DLRip] MVO ["Синема УС"] bober100 Скачать
1 | 0
T Фильмы (мультфильмы) cо спонсором показа (Новинки AVI/MKV) [ 1.31 GB ] Фар Край 5: "За вратами Эдема" / Far Cry 5: Inside Eden's Gate [2018 WEB-DL 720p] MVO ["Синема УС"] bober100 Скачать
1 | 0
Фильмы (WEB-DL 720p, 1080p) [ 3.1 GB ] Эдем / Eden [2014 WEB-DL 720p Любительский [GreenРай Studio] Ворон Скачать
1 | 0
Порно фильмы с русским переводом [ 3.35 GB ] Эдем. / Eden. [2007 Feature. HDRip одноголосый] Pir@tya2010 Скачать
1 | 0

28-11-2019 20:33  

Отключить всю рекламу на сайте

29-07-2020 20:38 Эдем Скачать торрент  

так этож нормуль же, этож уже надо быть отбитым, чтоб в современный футбол играть... Тем более в международной команде....Так что логичнй сюжет же...pb.wtf



    Дорогой пользователь! Огромная просьба, поблагодарите релизера, оцените раздачу и оставьте свои комментарий, если Вы скачали Эдем через торрент бесплатно! Внесите свою лепту в развитие PiratBit!
    Комментировать посты могут только пользователи прошедшие не сложную регистрацию
    Показать сообщения:    

    Эдем через торрент
    Скачать бесплатно Эдем
    Эдем скачать торрент
    Эдем смотреть онлайн
    Cкачать фильм Эдем бесплатно
    Эдем скачать торрент в хорошем качестве
    Эдем смотреть онлайн бесплатно в хорошем качестве


    Вы не можете начинать темы
    Вы не можете отвечать на сообщения
    Вы не можете редактировать свои сообщения
    Вы не можете удалять свои сообщения
    Вы не можете голосовать в опросах
    Вы не можете прикреплять файлы к сообщениям
    Вы можете скачивать файлы