Ссылка на приватное зеркало всего за 1$. Внимание количество ограничено!!!

iTunes

iTunes

iTunes

1

iTunes

iTunes

iTunes

WEBRip

iTunes

30
pack

$ от Little Big

ВАЖНО

!!Акция!!

Alien_RageХит недели

RePack

Resident Evil 21

ИГРА 18+

pack

RePack

jed

!!Акция!!

Alien_Rage

RePack

fifa19

RePack

Assassins Creed: Odyssey

RePack

NEED FOR SPEED™ PAYBACK

4 сезон

9 сезон

Бесстыжие 9 сезон

Все сериалы

все сериалы на PB.wtf

RePack

FAR CRY 5
  

Рождённые в Китае / Born In China (Лу Чуань) [2016, Документальный, научно-популярный, BDRip 1080p] MVO [iTunes] pb.wtf

Рождённые в Китае через торрент pb.wtf

Размер: 7.43 GB | Добавлен: 15 д. назад | Торрент скачан:5 раз
Скачать  

29-07-2020 18:31 Рождённые в Китае Скачать торрент  

Рождённые в Китае | Born In China
Год выпуска: 2016
Страна: Великобритания, Китай, США
Студия: Brian Leith Productions, Chuan Films, Disneynature
Жанр: Документальный, научно-популярный
Продолжительность: 01:19:23
Перевод: Профессиональный (многоголосый) | iTunes
Субтитры: Русские (Forced, Full), английские (Full, SDH)

Режиссер: Лу Чуань

rating

Текст читает: Давид Петросян

Описание: Рассказ о нескольких видах животных, обитающих на территории Китая - пандах, ирбисах, обезьянах, антилопах и журавлях.

Качество: BDRip 1080p
Формат: MKV

Видео: 1920х1080 (16:9), 23.976 fps, MPEG-4 AVC ~ 11, 5 Мbps avg, 0.231 bit/pixel
Аудио#1: AC3, 48 kHz, 6 ch, ~384.00 kbps avg | русский | iTunes
Аудио#2: DTS, 48 kHz, 6 ch, ~1509.00 kbps avg | английский | Оригинал
скриншот  скриншот  скриншот  скриншот  скриншот  

Общее
Уникальный идентификатор : 329755313047331238725020386387620919674 (0xF814902C0802DA628E3DB5F1CA59F97A)
Полное имя : Born.in.China.2016.1080p.BluRay.x264.mkv
Формат : Matroska
Версия формата : Version 4
Размер файла : 7, 43 Гбайт
Продолжительность : 1 ч. 19 м.
Общий поток : 13, 4 Мбит/сек
Название фильма : Рождённые в Китае / Born In China (2016)
Дата кодирования : UTC 2020-07-29 17:39:23
Программа кодирования : mkvmerge v47.0.0 ('Black Flag') 64-bit
Библиотека кодирования : libebml v1.3.10 + libmatroska v1.5.2
Обложка : Yes
Attachments : cover.jpg

Видео
Идентификатор : 1
Формат : AVC
Формат/Информация : Advanced Video Codec
Профиль формата : High@L4.1
Настройки формата : CABAC / 4 Ref Frames
Параметр CABAC формата : Да
Параметр RefFrames формата : 4 кадра
Идентификатор кодека : V_MPEG4/ISO/AVC
Продолжительность : 1 ч. 19 м.
Битрейт : 11, 5 Мбит/сек
Ширина : 1 920 пикселей
Высота : 1 080 пикселей
Соотношение сторон : 16:9
Режим частоты кадров : Постоянный
Частота кадров : 23, 976 (24000/1001) кадра/сек
Цветовое пространство : YUV
Субдискретизация насыщенности : 4:2:0
Битовая глубина : 8 бит
Тип развёртки : Прогрессивная
Бит/(Пиксели*Кадры) : 0.231
Размер потока : 6, 38 Гбайт (86%)
Заголовок : #HDChina
Библиотека кодирования : x264 core 148 r2665kMod a01e339
Настройки программы : cabac=1 / ref=4 / deblock=1:-3:-3 / analyse=0x3:0x133 / me=umh / subme=11 / psy=1 / fade_compensate=0.00 / psy_rd=0.85:0.00 / mixed_ref=1 / me_range=48 / chroma_me=1 / trellis=2 / 8x8dct=1 / cqm=0 / deadzone=21, 11 / fast_pskip=0 / chroma_qp_offset=-2 / threads=24 / lookahead_threads=4 / sliced_threads=0 / nr=0 / decimate=0 / interlaced=0 / bluray_compat=0 / constrained_intra=0 / fgo=0 / bframes=8 / b_pyramid=2 / b_adapt=2 / b_bias=0 / direct=3 / weightb=1 / open_gop=0 / weightp=2 / keyint=240 / keyint_min=24 / scenecut=40 / intra_refresh=0 / rc=2pass / mbtree=0 / bitrate=11500 / ratetol=1.0 / qcomp=0.70 / qpmin=0 / qpmax=69 / qpstep=4 / cplxblur=20.0 / qblur=0.5 / ip_ratio=1.20 / pb_ratio=1.20 / aq=3:0.80
Язык : English
Default : Да
Forced : Нет

Аудио #1
Идентификатор : 2
Формат : AC-3
Формат/Информация : Audio Coding 3
Коммерческое название : Dolby Digital
Идентификатор кодека : A_AC3
Продолжительность : 1 ч. 19 м.
Вид битрейта : Постоянный
Битрейт : 384 Кбит/сек
Каналы : 6 каналов
Channel layout : L R C LFE Ls Rs
Частота : 48, 0 КГц
Частота кадров : 31, 250 кадров/сек (1536 SPF)
Метод сжатия : С потерями
Размер потока : 218 Мбайт (3%)
Заголовок : iTunes
Язык : Russian
Service kind : Complete Main
Default : Да
Forced : Нет

Аудио #2
Идентификатор : 3
Формат : DTS
Формат/Информация : Digital Theater Systems
Идентификатор кодека : A_DTS
Продолжительность : 1 ч. 19 м.
Вид битрейта : Постоянный
Битрейт : 1 509 Кбит/сек
Каналы : 6 каналов
Channel layout : C L R Ls Rs LFE
Частота : 48, 0 КГц
Частота кадров : 93, 750 кадра/сек (512 SPF)
Битовая глубина : 24 бит
Метод сжатия : С потерями
Размер потока : 858 Мбайт (11%)
Язык : English
Default : Нет
Forced : Нет

Текст #1
Идентификатор : 4
Формат : UTF-8
Идентификатор кодека : S_TEXT/UTF8
Идентификатор кодека/Информация : UTF-8 Plain Text
Продолжительность : 50 м. 11 с.
Битрейт : 0 бит/сек
Count of elements : 5
Размер потока : 60, 0 байт (0%)
Заголовок : Forced
Язык : Russian
Default : Да
Forced : Да

Текст #2
Идентификатор : 5
Формат : UTF-8
Идентификатор кодека : S_TEXT/UTF8
Идентификатор кодека/Информация : UTF-8 Plain Text
Продолжительность : 1 ч. 14 м.
Битрейт : 73 бит/сек
Count of elements : 626
Размер потока : 39, 8 Кбайт (0%)
Заголовок : Full
Язык : Russian
Default : Нет
Forced : Нет

Текст #3
Идентификатор : 6
Формат : UTF-8
Идентификатор кодека : S_TEXT/UTF8
Идентификатор кодека/Информация : UTF-8 Plain Text
Продолжительность : 1 ч. 14 м.
Битрейт : 40 бит/сек
Count of elements : 636
Размер потока : 22, 2 Кбайт (0%)
Заголовок : Full
Язык : English
Default : Нет
Forced : Нет

Текст #4
Идентификатор : 7
Формат : UTF-8
Идентификатор кодека : S_TEXT/UTF8
Идентификатор кодека/Информация : UTF-8 Plain Text
Продолжительность : 1 ч. 15 м.
Битрейт : 44 бит/сек
Count of elements : 818
Размер потока : 24, 9 Кбайт (0%)
Заголовок : SDH
Язык : English
Default : Нет
Forced : Нет

Меню
00:00:00.000 : en:00:00:00.000
00:02:39.159 : en:00:02:39.159
00:07:52.847 : en:00:07:52.847
00:10:37.929 : en:00:10:37.929
00:12:32.710 : en:00:12:32.710
00:13:50.496 : en:00:13:50.496
00:17:06.525 : en:00:17:06.525
00:21:09.894 : en:00:21:09.894
00:24:08.906 : en:00:24:08.906
00:30:18.358 : en:00:30:18.358
00:34:25.730 : en:00:34:25.730
00:38:23.801 : en:00:38:23.801
00:40:32.805 : en:00:40:32.805
00:43:01.913 : en:00:43:01.913
00:49:54.408 : en:00:49:54.408
00:53:39.842 : en:00:53:39.842
01:02:19.361 : en:01:02:19.361
01:07:02.852 : en:01:07:02.852
01:11:43.299 : en:01:11:43.299

pb.wtf



Скачать Рождённые в Китае через торрент https://i112.fastpic.ru/big/2020/0729/91/b9cb8479d45ca330bc4136caaf05c591.jpg Скачать фильм Рождённые в Китае через торрент бесплантно в хорошем качестве Описание: Рассказ о нескольких видах животных, обитающих на территории Китая - пандах, ирбисах, обезьянах, антилопах и ... 10 10 4
Торрент: Зарегистрирован [2020-07-29 18:31] · скачан: 5 раз
Статус: √ проверено
Размер: 7.43 GB
Как cкачать? Как скачать Рождённые в Китае через торрент | qTorrent

% Раздел Тема Автор DL S | L
Научно-популярные фильмы [ 18.59 GB ] Рождённые в Китае / Born In China [2016 Документальный научно-популярный BD Remux 1080p] MVO bober100 Скачать
1 | 0
Научно-популярные фильмы [ 1.46 GB ] Рождённые в Китае / Born In China [2016 Документальный научно-популярный BDRip] MVO bober100 Скачать
2 | 0

28-11-2019 20:33  

Отключить всю рекламу на сайте

    Дорогой пользователь! Огромная просьба, поблагодарите релизера, оцените раздачу и оставьте свои комментарий, если Вы скачали Рождённые в Китае через торрент бесплатно! Внесите свою лепту в развитие PiratBit!
    Комментировать посты могут только пользователи прошедшие не сложную регистрацию
    Показать сообщения:    

    Рождённые в Китае через торрент
    Скачать бесплатно Рождённые в Китае
    Рождённые в Китае скачать торрент
    Рождённые в Китае смотреть онлайн
    Cкачать фильм Рождённые в Китае бесплатно
    Рождённые в Китае скачать торрент в хорошем качестве
    Рождённые в Китае смотреть онлайн бесплатно в хорошем качестве


    Вы не можете начинать темы
    Вы не можете отвечать на сообщения
    Вы не можете редактировать свои сообщения
    Вы не можете удалять свои сообщения
    Вы не можете голосовать в опросах
    Вы не можете прикреплять файлы к сообщениям
    Вы можете скачивать файлы