Ссылка на приватное зеркало нашего сайта всего за 1$. Внимание количество ограничено!!!

2 сезон

iTunes

1 сезон

1

iTunes

iTunes

iTunes

1 сезон

RePack

30

ИГРА 18+

pack

ВАЖНО

!!Акция!!

Alien_RageХит недели

RePack

MK11
pack

Забери бонус

RePack

jed

!!Акция!!

Alien_Rage

RePack

fifa19

RePack

Assassins Creed: Odyssey

RePack

NEED FOR SPEED™ PAYBACK

4 сезон

9 сезон

Бесстыжие 9 сезон

Все сериалы

все сериалы на PB.wtf

RePack

FAR CRY 5
  

Ласточка / Сезон: 1 / Серии: 1-16 из 16 (Денис Карро) [2018, детектив, WEBRip 720p] pb.wtf

Ласточка через торрент pb.wtf

Раздают: 4 [ 0 KB/s ] Качают: 1 [ 0 KB/s ]
Размер: 11.12 GB | Добавлен: 2 мес. 21 д. назад | Торрент скачан:74 раза
Скачать  

29-07-2020 19:20 Ласточка Скачать торрент  

Ласточка

Страна: Россия
Жанр: детектив
Год выпуска: 2018
Продолжительность: ~ 00:50:00 серия

Перевод: Не требуется
Субтитры: нет
Оригинальная аудиодорожка: русский

Сезон: 1
Количество серий: 1 - 16 из 16

Режиссер: Денис Карро

В ролях: Екатерина Редникова, Илья Носков, Ольга Фадеева, Михаил Химичев, Наталья Рычкова, Александр Волков, Петр Баранчеев, Наталья Рыжих, Олег Андросов, Виктория Высоцкая

Описание: Отсидев в тюрьме за убийство подруги, которого не совершала, потеряв в тюрьме ребенка и лишившись матери, она возвращается в родной поселок, чтобы найти настоящего убийцу и отомстить… Нет больше Ласточки – юной и наивной Аси Волковой (Екатерина Редникова), невинно осужденной 15 лет назад. Годы колонии превратили ее в Алину Воронову – холодную, одержимую местью женщину. Теперь у нее есть деньги, связи и моральное право уничтожить всех, кто сломал ей жизнь. Алина готова калечить жизни и рушить судьбы своих врагов! Ведь ее предали самые близкие люди – те, кого она любила и кого считала друзьями… Алина начинает собственное расследование. Ей помогают подруга Зара Савина (Ольга Фадеева) и журналист Павел Самохин (Илья Носков). Вскоре они приходят к поразительным выводам, которые меняют все. С каждым новым шагом план отмщения рассыпается, пробуждаются забытые чувства, а жажда расплаты остывает. Но жестокое колесо мести уже запущено и его жернова перемалывают всех – виновных, невиновных и… ее саму…



Релиз:

Автор релиза: stalkerok

Сэмпл

Качество видео: WEBRip 720p | Источник: RUSSIA TV
Формат видео: MKV
Видео кодек: AVC
Аудио кодек: AAC
Видео: AVC, 1792 Кбит/сек, 1280x720 (16:9), 25 кадр/сек
Аудио: AAC, 125 Кбит/сек, 48 КГц, 2.0 - русский
Сравнение с существующим в сети релизом HDTV 1080p by White Smoke - отсутствует реклама и всплывающие надписи телеканала, полный хронометраж серий (в HDTV 1080p они обрезаны): хронометраж первой серии HDTV 1080p - 00:42:30, WEB-DL 720p - 00:52:39
HDTV 1080p

WEB-DL 720p
Сравнение с существующимв сети релизом HDTVRip 720p by Nikolspup - отсутствует реклама и всплывающие надписи телеканала, полный хронометраж серий (в HDTVRip 720p они обрезаны): хронометраж первой серии HDTVRip 720p - 00:44:26, WEB-DL 720p - 00:52:39
HDTVRip 720p

WEB-DL 720p
General
Unique ID : 158122582410747201970602758954317598417 (0x76F54D37F15C7851D42EEF4934D14ED1)
Complete name : C:\temp\Lastochka.S01.2018.WEB-DL.720p.stalkerok.New-Team\Lastochka.S01.E01.2018.WEB-DL.720p.stalkerok.New-Team.mkv
Format : Matroska
Format version : Version 4
File size : 723 MiB
Duration : 52 min 39 s
Overall bit rate mode : Variable
Overall bit rate : 1 920 kb/s
Encoded date : UTC 2020-07-29 17:35:33
Writing application : mkvmerge v48.0.0 ('Fortress Around Your Heart') 64-bit
Writing library : libebml v1.4.0 + libmatroska v1.6.0

Video
ID : 1
Format : AVC
Format/Info : Advanced Video Codec
Format profile : High@L3.1
Format settings : CABAC / 2 Ref Frames
Format settings, CABAC : Yes
Format settings, Reference frames : 2 frames
Codec ID : V_MPEG4/ISO/AVC
Duration : 52 min 39 s
Bit rate mode : Variable
Bit rate : 1 792 kb/s
Maximum bit rate : 2 400 kb/s
Width : 1 280 pixels
Height : 720 pixels
Display aspect ratio : 16:9
Frame rate mode : Constant
Frame rate : 25.000 FPS
Color space : YUV
Chroma subsampling : 4:2:0
Bit depth : 8 bits
Scan type : Progressive
Bits/(Pixel*Frame) : 0.078
Stream size : 675 MiB (93%)
Default : Yes
Forced : No

Audio
ID : 2
Format : AAC LC
Format/Info : Advanced Audio Codec Low Complexity
Codec ID : A_AAC-2
Duration : 52 min 39 s
Bit rate : 125 kb/s
Channel(s) : 2 channels
Channel layout : L R
Sampling rate : 48.0 kHz
Frame rate : 46.875 FPS (1024 SPF)
Compression mode : Lossy
Stream size : 47.3 MiB (7%)
Default : Yes
Forced : No
pb.wtf



Скачать Ласточка через торрент http://i6.imageban.ru/out/2017/09/18/2ff75c0c358795c5946784cc1680714d.png Скачать фильм Ласточка через торрент бесплантно в хорошем качестве Описание: Отсидев в тюрьме за убийство подруги, которого не совершала, потеряв в тюрьме ребенка и лишившись матери, она возвращается в ... 10 10 4
Info! Золотая раздача, скачанное не засчитывается.
Торрент: Зарегистрирован [2020-07-29 19:20] · скачан: 74 раз
Статус: √ проверено
Размер: 11.12 GB
Как cкачать? Как скачать Ласточка через торрент | qTorrent

% Раздел Тема Автор DL S | L
Наши сериалы [ 11.27 GB ] Ласточка / Сезон: 1 / Серии: 1-16 из 16 [2018 HDTVRip-AVC] bober100 Скачать
1 | 0
Наши сериалы [ 9.74 GB ] Ласточка / Сезон: 1 / Серии: 1-16 из 16 [2018 HDTVRip] bober100 Скачать
2 | 0
Наши сериалы [ 21.57 GB ] Ласточка / Сезон: 1 / Серии: 1-16 из 16 [2018 HDTVRip 720p] bober100 Скачать
1 | 0
Наши сериалы [ 37.3 GB ] Ласточка / Сезон: 1 / Серии: [2018 HDTV 1080p] [Русский] R.G.Generalfilm White Smoke Скачать
1 | 0


Последний раз редактировалось: sokol_ok (2020-07-30 04:39), всего редактировалось 1 раз

28-11-2019 20:33  

Отключить всю рекламу на сайте

    Дорогой пользователь! Огромная просьба, поблагодарите релизера, оцените раздачу и оставьте свои комментарий, если Вы скачали Ласточка через торрент бесплатно! Внесите свою лепту в развитие PiratBit!
    Комментировать посты могут только пользователи прошедшие не сложную регистрацию
    Показать сообщения:    

    Ласточка через торрент
    Скачать бесплатно Ласточка
    Ласточка скачать торрент
    Ласточка смотреть онлайн
    Cкачать фильм Ласточка бесплатно
    Ласточка скачать торрент в хорошем качестве
    Ласточка смотреть онлайн бесплатно в хорошем качестве


    Вы не можете начинать темы
    Вы не можете отвечать на сообщения
    Вы не можете редактировать свои сообщения
    Вы не можете удалять свои сообщения
    Вы не можете голосовать в опросах
    Вы не можете прикреплять файлы к сообщениям
    Вы можете скачивать файлы