Ссылка на приватное зеркало всего за 1$. Внимание количество ограничено!!!

iTunes

iTunes

iTunes

1

iTunes

iTunes

iTunes

WEBRip

iTunes

30
pack

$ от Little Big

ВАЖНО

!!Акция!!

Alien_RageХит недели

RePack

Resident Evil 21

ИГРА 18+

pack

RePack

jed

!!Акция!!

Alien_Rage

RePack

fifa19

RePack

Assassins Creed: Odyssey

RePack

NEED FOR SPEED™ PAYBACK

4 сезон

9 сезон

Бесстыжие 9 сезон

Все сериалы

все сериалы на PB.wtf

RePack

FAR CRY 5
  

Звёздные врата / Stargate (Роланд Эммерих) [1994 г., фантастика, боевик, приключения, BDRip 1080p] [Рёжиссерская версия / Director's Cut] 2xMVO, DVO, 2xAVO (А.Гаврилов, Ю.Живов) pb.wtf

Звёздные врата через торрент pb.wtf

Раздают: 4 [ 0 KB/s ]
Размер: 7.95 GB | Добавлен: 14 д. назад | Торрент скачан:65 раз
Скачать  

29-07-2020 21:02 Звёздные врата Скачать торрент  

Звёздные врата / Stargate
Рёжиссерская версия / Director's Cut
Год выпуска: 1994

Страна: Франция, США

Жанр: Фантастика, боевик, приключения

Продолжительность: 02:09:54

Перевод: Профессиональный (многоголосый), профессиональный (двухголосый), авторский (одноголосый)

Субтитры: Русские, английские

Режиссер: Роланд Эммерих

rating

В ролях: Курт Расселл, Джеймс Спэйдер, Джей Дэвидсон, Вивека Линдфорс, Алексис Крус, Мили Авитал, Леон Риппи, Джон Дил, Карлос Лаучу, Джимон Хонсу, Эрик Авари, Френч Стюарт, Джанин Лоффлер, Кристофер Джон Филдс, Дерек Уэбстер, Джек Мур, Стив Джаннелли, Дэвид Прессман, Скотт Алан Смит, Сесил Хоффман

Описание: 1928 год. Египет. Археолог находит странное сооружение. Через много лет уже в наше время его дочь привлекает молодого специалиста Джексона для разгадки тайны, над которой бьются учёные на военной базе в горах. Таинственное сооружение оказывается калиткой в другие миры. С группой спецназа Джексон и полковник отправляются через звёдные врата навстречу неизведанному. А там их ждут суровые испытания и борьба, от исхода которой зависит судьба человечества.
Качество: BDRip 1080p
Формат: MKV
Видео: MPEG-4 AVC, 6076 Кбит/с, 1920x800, 23.976 кадр/с
Аудио#1: Русский, AC3, 6 ch, 448 Кбит/сек - MVO (CP-Digital)
Аудио#2: Русский, AC3, 6 ch, 448 Кбит/сек - MVO (ОРТ)
Аудио#3: Русский, AC3, 6 ch, 448 Кбит/сек - DVO (П.Гланц и И.Королёва)
Аудио#4: Русский, AC3, 6 ch, 448 Кбит/сек - AVO (А.Гаврилов)
Аудио#5: Русский, AC3, 6 ch, 448 Кбит/сек - AVO (Ю.Живов)
Аудио#6: Английский, AC3, 6 ch, 448 Кбит/сек
Видео
Идентификатор : 1
Формат : AVC
Формат/Информация : Advanced Video Codec
Профиль формата : High@L4.1
Настройки формата : CABAC / 5 Ref Frames
Параметр CABAC формата : Да
Параметр RefFrames формата : 5 кадров
Идентификатор кодека : V_MPEG4/ISO/AVC
Продолжительность : 2 ч. 9 м.
Битрейт : 6076 Кбит/сек
Ширина : 1920 пикселей
Высота : 800 пикселей
Соотношение сторон : 2,40:1
Режим частоты кадров : Постоянный
Частота кадров : 23,976 кадра/сек
Цветовое пространство : YUV
Субдискретизация насыщенности : 4:2:0
Битовая глубина : 8 бит
Тип развёртки : Прогрессивная
Бит/(Пиксели*Кадры) : 0.165
Размер потока : 5,35 Гбайт (67%)
Заголовок : Release by AlexKa
Библиотека кодирования : x264 core 120 r2120 0c7dab9
Настройки программы : cabac=1 / ref=5 / deblock=1:-3:-3 / analyse=0x3:0x133 / me=umh / subme=10 / psy=1 / psy_rd=1.00:0.10 / mixed_ref=1 / me_range=32 / chroma_me=1 / trellis=2 / 8x8dct=1 / cqm=0 / deadzone=21,11 / fast_pskip=0 / chroma_qp_offset=-3 / threads=12 / sliced_threads=0 / nr=0 / decimate=0 / interlaced=0 / bluray_compat=0 / constrained_intra=0 / bframes=5 / b_pyramid=2 / b_adapt=2 / b_bias=0 / direct=3 / weightb=1 / open_gop=0 / weightp=2 / keyint=240 / keyint_min=24 / scenecut=40 / intra_refresh=0 / rc_lookahead=60 / rc=2pass / mbtree=1 / bitrate=6076 / ratetol=1.0 / qcomp=0.60 / qpmin=0 / qpmax=69 / qpstep=4 / cplxblur=20.0 / qblur=0.5 / ip_ratio=1.40 / aq=1:1.00
Язык : English
Default : Нет
Forced : Нет

Аудио #1
Идентификатор : 2
Формат : AC-3
Формат/Информация : Audio Coding 3
Коммерческое название : Dolby Digital
Идентификатор кодека : A_AC3
Продолжительность : 2 ч. 9 м.
Вид битрейта : Постоянный
Битрейт : 448 Кбит/сек
Каналы : 6 каналов
ChannelLayout : L R C LFE Ls Rs
Частота : 48,0 КГц
Частота кадров : 31,250 кадров/сек (1536 SPF)
Метод сжатия : С потерями
Размер потока : 417 Мбайт (5%)
Заголовок : Многоголосый, CP-Digital
Язык : Russian
ServiceKind/String : Complete Main
Default : Нет
Forced : Нет

Аудио #2
Идентификатор : 3
Формат : AC-3
Формат/Информация : Audio Coding 3
Коммерческое название : Dolby Digital
Идентификатор кодека : A_AC3
Продолжительность : 2 ч. 9 м.
Вид битрейта : Постоянный
Битрейт : 448 Кбит/сек
Каналы : 6 каналов
ChannelLayout : L R C LFE Ls Rs
Частота : 48,0 КГц
Частота кадров : 31,250 кадров/сек (1536 SPF)
Метод сжатия : С потерями
Размер потока : 417 Мбайт (5%)
Заголовок : Многоголосый, ОРТ
Язык : Russian
ServiceKind/String : Complete Main
Default : Нет
Forced : Нет

Аудио #3
Идентификатор : 4
Формат : AC-3
Формат/Информация : Audio Coding 3
Коммерческое название : Dolby Digital
Идентификатор кодека : A_AC3
Продолжительность : 2 ч. 9 м.
Вид битрейта : Постоянный
Битрейт : 448 Кбит/сек
Каналы : 6 каналов
ChannelLayout : L R C LFE Ls Rs
Частота : 48,0 КГц
Частота кадров : 31,250 кадров/сек (1536 SPF)
Метод сжатия : С потерями
Размер потока : 417 Мбайт (5%)
Заголовок : Двухголосый, П.Гланц и И.Королева
Язык : Russian
ServiceKind/String : Complete Main
Default : Нет
Forced : Нет

Аудио #4
Идентификатор : 5
Формат : AC-3
Формат/Информация : Audio Coding 3
Коммерческое название : Dolby Digital
Идентификатор кодека : A_AC3
Продолжительность : 2 ч. 9 м.
Вид битрейта : Постоянный
Битрейт : 448 Кбит/сек
Каналы : 6 каналов
ChannelLayout : L R C LFE Ls Rs
Частота : 48,0 КГц
Частота кадров : 31,250 кадров/сек (1536 SPF)
Метод сжатия : С потерями
Размер потока : 417 Мбайт (5%)
Заголовок : Одноголосый, А.Гаврилов
Язык : Russian
ServiceKind/String : Complete Main
Default : Нет
Forced : Нет

Аудио #5
Идентификатор : 6
Формат : AC-3
Формат/Информация : Audio Coding 3
Коммерческое название : Dolby Digital
Идентификатор кодека : A_AC3
Продолжительность : 2 ч. 9 м.
Вид битрейта : Постоянный
Битрейт : 448 Кбит/сек
Каналы : 6 каналов
ChannelLayout : L R C LFE Ls Rs
Частота : 48,0 КГц
Частота кадров : 31,250 кадров/сек (1536 SPF)
Метод сжатия : С потерями
Размер потока : 417 Мбайт (5%)
Заголовок : Одноголосый, Ю.Живов
Язык : Russian
ServiceKind/String : Complete Main
Default : Нет
Forced : Нет

Аудио #6
Идентификатор : 7
Формат : AC-3
Формат/Информация : Audio Coding 3
Коммерческое название : Dolby Digital
Идентификатор кодека : A_AC3
Продолжительность : 2 ч. 9 м.
Вид битрейта : Постоянный
Битрейт : 448 Кбит/сек
Каналы : 6 каналов
ChannelLayout : L R C LFE Ls Rs
Частота : 48,0 КГц
Частота кадров : 31,250 кадров/сек (1536 SPF)
Метод сжатия : С потерями
Размер потока : 417 Мбайт (5%)
Заголовок : Оригинал
Язык : English
ServiceKind/String : Complete Main
Default : Нет
Forced : Нет

Текст #1
Идентификатор : 8
Формат : UTF-8
Идентификатор кодека : S_TEXT/UTF8
Идентификатор кодека/Информация : UTF-8 Plain Text
Заголовок : Rus
Язык : Russian
Default : Нет
Forced : Нет

Текст #2
Идентификатор : 9
Формат : UTF-8
Идентификатор кодека : S_TEXT/UTF8
Идентификатор кодека/Информация : UTF-8 Plain Text
Заголовок : Eng
Язык : English
Default : Нет
Forced : Нет

Меню
00:00:00.000 : :Chapter 01
00:04:00.365 : :Chapter 02
00:06:42.068 : :Chapter 03
00:10:24.790 : :Chapter 04
00:12:08.602 : :Chapter 05
00:21:35.292 : :Chapter 06
00:28:50.353 : :Chapter 07
00:33:23.418 : :Chapter 08
00:36:06.080 : :Chapter 09
00:44:40.135 : :Chapter 10
00:51:14.988 : :Chapter 11
00:55:36.166 : :Chapter 12
01:01:27.141 : :Chapter 13
01:12:55.954 : :Chapter 14
01:16:49.187 : :Chapter 15
01:23:59.283 : :Chapter 16
01:27:04.761 : :Chapter 17
01:31:51.546 : :Chapter 18
01:43:10.058 : :Chapter 19
01:45:41.585 : :Chapter 20
01:49:30.104 : :Chapter 21
01:58:17.173 : :Chapter 22
02:01:32.493 : :Chapter 23
02:03:25.356 : :Chapter 24
02:09:36.393 : :Chapter 25

скриншот   скриншот   скриншот   скриншот   скриншот  

pb.wtf



Скачать Звёздные врата через торрент http://pic1.kartinco.top/images/12/q1sxo.jpg Скачать фильм Звёздные врата через торрент бесплантно в хорошем качестве Описание: 1928 год. Египет. Археолог находит странное сооружение. Через много лет уже в наше время его дочь привлекает молодого специалиста ... 10 10 11
Info! Золотая раздача, скачанное не засчитывается.
Торрент: Зарегистрирован [2020-07-29 21:02] · скачан: 65 раз
Статус: √ проверено
Размер: 7.95 GB
Как cкачать? Как скачать Звёздные врата через торрент | qTorrent

% Раздел Тема Автор DL S | L
Зарубежные сериалы [ 3 GB ] Звездные врата: Начало / Stargate Origins / Сезон: 1 / Серии: 1-10 из 10 [2018 WEB-DL 720p] MVO [AlexFilm] bober100 Скачать
1 | 0
Зарубежные сериалы [ 1.4 GB ] Звездные врата: Начало / Stargate Origins / Сезон: 1 / Серии: 1-10 из 10 [2018 WEB-DLRip] MVO [AlexFilm] bober100 Скачать
1 | 0
Зарубежные сериалы [ 1.53 GB ] Звездные Врата: Истоки / Звездные врата: Начало / Stargate Origins / Сезон: 1 / Серии 1-10 из 10 [2018 WEB-DL Rip] MVO [LostFilm] GEKADOL Скачать
1 | 0
Зарубежные сериалы [ 1.96 GB ] Звездные врата: Начало / Stargate Origins / Сезон 1 / Серии 1-7 из 10 [2018 WEBRip 720p] MVO [ColdFIlm] bober100 Скачать
2 | 0
Зарубежные сериалы [ 1.22 GB ] Звездные Врата: Истоки / Stargate Origins / Сезон: 1 / Серии 1-10 из 10 [2018 WEBRip] MVO [BaibaKo] GEKADOL Скачать
1 | 0
Зарубежные сериалы [ 3.27 GB ] Звездные Врата: Истоки / Stargate Origins / Сезон: 1 / Серии 1-10 из 10 [2018 WEBRip 1080p] MVO [BaibaKo] GEKADOL Скачать
1 | 0
Зарубежные сериалы [ 962 MB ] Звездные врата: Начало / Stargate Origins / Сезон 1 / Серии 1-3 из 10 [2018 WEBRip 1080p] MVO [ColdFIlm] bober100 Скачать
1 | 0


Последний раз редактировалось: Леонид Ильич (2020-07-30 14:11), всего редактировалось 1 раз

28-11-2019 20:33  

Отключить всю рекламу на сайте

30-07-2020 13:53 Звёздные врата Скачать торрент  

Леонид Ильич, Звёдные врата - Звёздные врата, добавь Зpb.wtf



30-07-2020 14:12 Звёздные врата Скачать торрент  

Zool писал(а):

Леонид Ильич, Звёдные врата - Звёздные врата, добавь З

добавил.одно странно,что когда делал релиз была буковкаpb.wtf



30-07-2020 17:58 Звёздные врата Скачать торрент  

Лучшая космическая эпопея всех времен, фильмы, сериалы. Это кстати первый фильм который стоит смотреть.pb.wtf



    Дорогой пользователь! Огромная просьба, поблагодарите релизера, оцените раздачу и оставьте свои комментарий, если Вы скачали Звёздные врата через торрент бесплатно! Внесите свою лепту в развитие PiratBit!
    Комментировать посты могут только пользователи прошедшие не сложную регистрацию
    Показать сообщения:    

    Звёздные врата через торрент
    Скачать бесплатно Звёздные врата
    Звёздные врата скачать торрент
    Звёздные врата смотреть онлайн
    Cкачать фильм Звёздные врата бесплатно
    Звёздные врата скачать торрент в хорошем качестве
    Звёздные врата смотреть онлайн бесплатно в хорошем качестве


    Вы не можете начинать темы
    Вы не можете отвечать на сообщения
    Вы не можете редактировать свои сообщения
    Вы не можете удалять свои сообщения
    Вы не можете голосовать в опросах
    Вы не можете прикреплять файлы к сообщениям
    Вы можете скачивать файлы