Ссылка на приватное зеркало всего за 1$. Внимание количество ограничено!!!

iTunes

iTunes

iTunes

1

iTunes

iTunes

iTunes

WEBRip

iTunes

30
pack

$ от Little Big

ВАЖНО

!!Акция!!

Alien_RageХит недели

RePack

Resident Evil 21

ИГРА 18+

pack

RePack

jed

!!Акция!!

Alien_Rage

RePack

fifa19

RePack

Assassins Creed: Odyssey

RePack

NEED FOR SPEED™ PAYBACK

4 сезон

9 сезон

Бесстыжие 9 сезон

Все сериалы

все сериалы на PB.wtf

RePack

FAR CRY 5
  

Погнали / Сезон: 1 / Серии: 1-21 из 21 (Илья Казанков, Филипп Коршунов) [2020, Комедия, приключения, ситком, WEB-DLRip-AVC] pb.wtf

Погнали через торрент pb.wtf

Раздают: 4 [ 226 KB/s ] Качают: 4 [ 0 KB/s ]
Размер: 6.27 GB | Добавлен: 13 д. назад | Торрент скачан:38 раз
Скачать  

31-07-2020 02:47 Погнали Скачать торрент  

Погнали
Год выпуска: 2020
Страна: Россия
Выпущено: «Art Pictures Vision» при участии «Varvar Studio» по заказу телеканала СТС
Жанр: Комедия, приключения, ситком
Продолжительность: ~ 00:25:00
Субтитры: отсутствуют

Режиссер: Илья Казанков, Филипп Коршунов



В ролях: Ольга Медынич, Михаил Трухин, Артём Фадеев, Александр Булатов, Виталия Корниенко, Александра Киселёва (II), Ирина Пегова, Дмитрий Лысенков, Иван Ефремов (IV), Маша Лобынцева, Руслан Смирнов, Арсений Сергеев, Мирослава Михайлова, Марта Дромашко, Децл, Владимир Зайцев

Описание: Многодетное семейство Осиных отправляется в автопушествие из Красноярска в Минск ради младшей дочки Вари, которая мечтает победить в международном конкурсе народной песни. На пути к детской мечте героев ждут неожиданные попутчики, в том числе бандиты-близнецы, которые преследуют семейный минивэн.

Качество: WEB-DLRip-AVC
Формат: MKV

Видео: MPEG-4 AVC, ~ 1600 Кбит/с, 1024x576, 25 кадр/с
Аудио: 48.0 kHz, AC3 Dolby Digital, 2/0 (L,R) ch, ~ 192 kbps
скриншот  скриншот  скриншот  скриншот  

General
Unique ID : 211181899258630359099613351004474971238 (0x9EE027837281A435A7F2EB7EDC681466)
Complete name : F:\Погнали.(2019).WEB-DLRip.(AVC).Files-x\01.Pognali.(2019).WEB-DLRip.(AVC).by.Серый1779.Files-x.mkv
Format : Matroska
Format version : Version 2
File size : 312 MiB
Duration : 24 min 19 s
Overall bit rate : 1 793 kb/s
Encoded date : UTC 2020-07-19 22:11:48
Writing application : mkvmerge v7.8.0 ('River Man') 32bit built on Apr 3 2015 12:11:22
Writing library : libebml v1.3.1 + libmatroska v1.4.2

Video
ID : 1
Format : AVC
Format/Info : Advanced Video Codec
Format profile : High@L4.1
Format settings : CABAC / 9 Ref Frames
Format settings, CABAC : Yes
Format settings, RefFrames : 9 frames
Codec ID : V_MPEG4/ISO/AVC
Duration : 24 min 19 s
Bit rate : 1 600 kb/s
Width : 1 024 pixels
Height : 576 pixels
Display aspect ratio : 16:9
Frame rate mode : Constant
Frame rate : 25.000 FPS
Color space : YUV
Chroma subsampling : 4:2:0
Bit depth : 8 bits
Scan type : Progressive
Bits/(Pixel*Frame) : 0.109
Stream size : 272 MiB (87%)
Writing library : x264 core 146 r2538 121396c
Encoding settings : cabac=1 / ref=9 / deblock=1:-2:-1 / analyse=0x3:0x133 / me=umh / subme=9 / psy=1 / psy_rd=1.00:0.15 / mixed_ref=1 / me_range=32 / chroma_me=1 / trellis=2 / 8x8dct=1 / cqm=0 / deadzone=21,11 / fast_pskip=0 / chroma_qp_offset=-3 / threads=18 / lookahead_threads=3 / sliced_threads=0 / nr=0 / decimate=1 / interlaced=0 / bluray_compat=0 / constrained_intra=0 / bframes=9 / b_pyramid=2 / b_adapt=2 / b_bias=0 / direct=1 / weightb=1 / open_gop=0 / weightp=2 / keyint=250 / keyint_min=25 / scenecut=40 / intra_refresh=0 / rc=2pass / mbtree=0 / bitrate=1600 / ratetol=1.0 / qcomp=0.60 / qpmin=0 / qpmax=69 / qpstep=4 / cplxblur=20.0 / qblur=0.5 / ip_ratio=1.40 / pb_ratio=1.30 / aq=2:1.00
Default : Yes
Forced : No
Color range : Limited
Color primaries : BT.709
Transfer characteristics : BT.709
Matrix coefficients : BT.709

Audio
ID : 2
Format : AC-3
Format/Info : Audio Coding 3
Format settings, Endianness : Big
Codec ID : A_AC3
Duration : 24 min 19 s
Bit rate mode : Constant
Bit rate : 192 kb/s
Channel(s) : 2 channels
Channel positions : Front: L R
Sampling rate : 48.0 kHz
Frame rate : 31.250 FPS (1536 SPF)
Bit depth : 16 bits
Compression mode : Lossy
Stream size : 33.4 MiB (11%)
Service kind : Complete Main
Default : Yes
Forced : No

pb.wtf



Скачать Погнали через торрент https://img10.lostpic.net/2020/07/06/ff757261ca4a67b2906d8ffd18890630.jpg Скачать фильм Погнали через торрент бесплантно в хорошем качестве Описание: Многодетное семейство Осиных отправляется в автопушествие из Красноярска в Минск ради младшей дочки Вари, которая мечтает ... 10 10 4
Торрент: Зарегистрирован [2020-07-31 02:47] · скачан: 38 раз
Статус: √ проверено
Размер: 6.27 GB
Как cкачать? Как скачать Погнали через торрент | qTorrent

% Раздел Тема Автор DL S | L
Наши сериалы [ 6.13 GB ] Погнали / Сезон: 1 / Серии: 1-21 из 21 [2020 ситком WEB-DLRip] bober100 Скачать
1 | 2
Наши сериалы [ 12.88 GB ] Погнали / Сезон: 1 / Серии: 1-21 из 21 [2020 ситком WEB-DL 1080p] bober100 Скачать
2 | 1
Наши сериалы [ 7.64 GB ] Погнали / Сезон: 1 / Серии: 1-21 из 21 [2020 ситком WEB-DL 720p] bober100 Скачать
3 | 1
Наши сериалы [ 7.18 GB ] Погнали / Сезон: 1 / Серии: 1-21 из 21 [2020 ситком WEB-DLRip] bober100 Скачать
5 | 1

28-11-2019 20:33  

Отключить всю рекламу на сайте

    Дорогой пользователь! Огромная просьба, поблагодарите релизера, оцените раздачу и оставьте свои комментарий, если Вы скачали Погнали через торрент бесплатно! Внесите свою лепту в развитие PiratBit!
    Комментировать посты могут только пользователи прошедшие не сложную регистрацию
    Показать сообщения:    

    Погнали через торрент
    Скачать бесплатно Погнали
    Погнали скачать торрент
    Погнали смотреть онлайн
    Cкачать фильм Погнали бесплатно
    Погнали скачать торрент в хорошем качестве
    Погнали смотреть онлайн бесплатно в хорошем качестве


    Вы не можете начинать темы
    Вы не можете отвечать на сообщения
    Вы не можете редактировать свои сообщения
    Вы не можете удалять свои сообщения
    Вы не можете голосовать в опросах
    Вы не можете прикреплять файлы к сообщениям
    Вы можете скачивать файлы