Ссылка на приватное зеркало всего за 1$. Внимание количество ограничено!!!

iTunes

iTunes

iTunes

1

iTunes

iTunes

iTunes

WEBRip

iTunes

30
pack

$ от Little Big

ВАЖНО

!!Акция!!

Alien_RageХит недели

RePack

Resident Evil 21

ИГРА 18+

pack

RePack

jed

!!Акция!!

Alien_Rage

RePack

fifa19

RePack

Assassins Creed: Odyssey

RePack

NEED FOR SPEED™ PAYBACK

4 сезон

9 сезон

Бесстыжие 9 сезон

Все сериалы

все сериалы на PB.wtf

RePack

FAR CRY 5
  

Захар Беркут / The Rising Hawk (Ахтем Сейтаблаев, Джон Винн) [2019, боевик, драма, история, WEB-DL 1080p] [MVO] (HDRezka Studio) pb.wtf

Захар Беркут через торрент pb.wtf

Раздают: 22 [ 146 KB/s ]
Размер: 3.86 GB | Добавлен: 13 д. назад | Торрент скачан:292 раза
Скачать  

31-07-2020 06:31 Захар Беркут Скачать торрент  

Захар Беркут / The Rising Hawk

Название: Захар Беркут
Оригинальное название: Захар Беркут
Год выхода: 2019
Жанр: боевик, драма, история
Страна: Украина, США
Продолжительность: 01:43:44
Перевод:Профессиональный многоголосый | HDRezka Studio
Субтитры: Русские (форс.)

Режиссер: Ахтем Сейтаблаев, Джон Винн

В ролях: Элисон Дуди, Томми Флэнаган, Роберт Патрик, Поппи Дрейтон, Алекс МакНиколл, Роки Майерс, Oliver Trevena, Алина Коваленко, Олег Волощенко, Виктор Жданов

Описание: 1241 год. Монгольская орда во главе с ханом Бурундой движется на запад, истребляя все на своём пути и захватывая пленных. Дойдя до высоких Карпатских гор, войско останавливается у подножия. Ночью несколько местных охотников, братья Беркуты, тайком пробираются в лагерь и освобождают пленных. Узнав об этом, Бурунда приходит в ярость и решает отомстить, уничтожив местные поселения. Для этого он находит предателя среди местных, который открывает ему тайный проход в горах. Однако у горских охотников под предводительством Захара Беркута есть свой план, как раз и навсегда остановить врага.



Качество: WEB-DL 1080p
Формат: MKV
Видео: MPEG-4 AVC, 1912x796 (2.40:1), 25.000 fps, 4449 Kbps, 0.117 bit/pixel
Аудио 1: 48 kHz, AC3, 5.1, 384 Kbps | MVO | RUS |
Аудио 2: 48 kHz, AC3, 5.1, 384 Kbps | Оригинал | ENG |

БЕЗ КАКОЙ-ЛИБО РЕКЛАМЫ!
General

Unique ID : 194099526705646397487597352110980446716 (0x9206358570955743B7E821DED82DB9FC)

Complete name : C:The.Rising.Hawk.2019.MVO.1080p.WEB-DL.ExKinoRay.mkv

Format : Matroska

Format version : Version 2

File size : 3.86 GiB

Duration : 1 h 43 min

Overall bit rate : 5 323 kb/s

Movie name : The Rising Hawk 2019 from ExKinoRay

Encoded date : UTC 2020-07-30 20:21:08

Writing application : mkvmerge v5.6.0 ('Kenya Kane') built on May 27 2012 16:44:04

Writing library : libebml v1.2.3 + libmatroska v1.3.0

Video

ID : 1

Format : AVC

Format/Info : Advanced Video Codec

Format profile : High@L4

Format settings, CABAC : Yes

Format settings, ReFrames : 5 frames

Codec ID : V_MPEG4/ISO/AVC

Duration : 1 h 43 min

Bit rate : 4 449 kb/s

Width : 1 912 pixels

Height : 796 pixels

Display aspect ratio : 2.40:1

Frame rate mode : Constant

Frame rate : 25.000 FPS

Color space : YUV

Chroma subsampling : 4:2:0

Bit depth : 8 bits

Scan type : Progressive

Bits/(Pixel*Frame) : 0.117

Stream size : 3.22 GiB (84%)

Default : Yes

Forced : No

Color range : Limited

Color primaries : BT.709

Transfer characteristics : BT.709

Matrix coefficients : BT.709

Audio #1

ID : 2

Format : AC-3

Format/Info : Audio Coding 3

Mode extension : CM (complete main)

Format settings, Endianness : Big

Codec ID : A_AC3

Duration : 1 h 43 min

Bit rate mode : Constant

Bit rate : 384 kb/s

Channel(s) : 6 channels

Channel positions : Front: L C R, Side: L R, LFE

Sampling rate : 48.0 kHz

Frame rate : 31.250 FPS (1536 spf)

Compression mode : Lossy

Stream size : 285 MiB (7%)

Title : MVO (HDRezka Studio)

Language : Russian

Default : Yes

Forced : No

Audio #2

ID : 3

Format : AC-3

Format/Info : Audio Coding 3

Mode extension : CM (complete main)

Format settings, Endianness : Big

Codec ID : A_AC3

Duration : 1 h 43 min

Bit rate mode : Constant

Bit rate : 384 kb/s

Channel(s) : 6 channels

Channel positions : Front: L C R, Side: L R, LFE

Sampling rate : 48.0 kHz

Frame rate : 31.250 FPS (1536 spf)

Compression mode : Lossy

Stream size : 285 MiB (7%)

Language : English

Default : No

Forced : No

Text

ID : 4

Format : UTF-8

Codec ID : S_TEXT/UTF8

Codec ID/Info : UTF-8 Plain Text

Title : Forced

Language : Russian

Default : Yes

Forced : No

Menu

00:00:00.000 : en:Capítulo 1

00:10:10.200 : en:Capítulo 2

00:20:25.920 : en:Capítulo 3

00:30:14.240 : en:Capítulo 4

00:41:09.720 : en:Capítulo 5

00:51:01.720 : en:Capítulo 6

01:02:40.359 : en:Capítulo 7

01:11:11.158 : en:Capítulo 8

01:21:37.717 : en:Capítulo 9

01:30:49.437 : en:Capítulo 10
скриншот  скриншот  скриншот  
Релиз от:

Автор релиза: pb.wtf



Скачать Захар Беркут через торрент http://c.radikal.ru/c10/2007/ee/8424786939a0.jpg Скачать фильм Захар Беркут через торрент бесплантно в хорошем качестве Описание: 1241 год. Монгольская орда во главе с ханом Бурундой движется на запад, истребляя все на своём пути и захватывая пленных. Дойдя ... 9.4 10 14
Торрент: Зарегистрирован [2020-07-31 06:31] · скачан: 292 раз
Статус: √ проверено
Размер: 3.86 GB
Как cкачать? Как скачать Захар Беркут через торрент | qTorrent

% Раздел Тема Автор DL S | L
Фильмы 2019-2020 [DVDrip, WEB-DLRip, HDrip] (DUB, MVO) [ 1.46 GB ] Захар Беркут / The Rising Hawk [2019 история WEB-DLRip] MVO [HDRezka Studio] bober100 Скачать
26 | 1
Фильмы 2019-2020 [DVDrip, WEB-DLRip, HDrip] (DUB, MVO) [ 744 MB ] Захар Беркут / The Rising Hawk [2019 история WEB-DLRip-AVC] [MVO] [HDRezka Studio] от wolf1245 & MediaBit Lithuania Скачать
18 | 0
Фильмы 2019-2020 [DVDrip, WEB-DLRip, HDrip] (DUB, MVO) [ 748 MB ] Захар Беркут / The Rising Hawk [2019 история WEB-DLRip] MVO [HDRezka Studio] bober100 Скачать
6 | 0

28-11-2019 20:33  

Отключить всю рекламу на сайте

31-07-2020 19:22 Захар Беркут Скачать торрент  

Вот это история!!! Чуть глаз не выпал, когда увидел актёров - все "натуральные" украинцы. Хорошо, хоть негров не впихнули с полупокерами и лесбиянками.
Релизёру спасибо за образчик современного украинского фильмостроения.pb.wtf



    Дорогой пользователь! Огромная просьба, поблагодарите релизера, оцените раздачу и оставьте свои комментарий, если Вы скачали Захар Беркут через торрент бесплатно! Внесите свою лепту в развитие PiratBit!
    Комментировать посты могут только пользователи прошедшие не сложную регистрацию
    Показать сообщения:    

    Захар Беркут через торрент
    Скачать бесплатно Захар Беркут
    Захар Беркут скачать торрент
    Захар Беркут смотреть онлайн
    Cкачать фильм Захар Беркут бесплатно
    Захар Беркут скачать торрент в хорошем качестве
    Захар Беркут смотреть онлайн бесплатно в хорошем качестве


    Вы не можете начинать темы
    Вы не можете отвечать на сообщения
    Вы не можете редактировать свои сообщения
    Вы не можете удалять свои сообщения
    Вы не можете голосовать в опросах
    Вы не можете прикреплять файлы к сообщениям
    Вы можете скачивать файлы