Ссылка на приватное зеркало всего за 1$. Внимание количество ограничено!!!

iTunes

iTunes

iTunes

1

iTunes

iTunes

iTunes

WEBRip

iTunes

30
pack

$ от Little Big

ВАЖНО

!!Акция!!

Alien_RageХит недели

RePack

Resident Evil 21

ИГРА 18+

pack

RePack

jed

!!Акция!!

Alien_Rage

RePack

fifa19

RePack

Assassins Creed: Odyssey

RePack

NEED FOR SPEED™ PAYBACK

4 сезон

9 сезон

Бесстыжие 9 сезон

Все сериалы

все сериалы на PB.wtf

RePack

FAR CRY 5
  

Академия «Амбрелла» / The Umbrella Academy / Сезон: 2 / Серии: 1-10 из 10 (Сильвен Уайт, Питер Хор, Эллен Курас) [2020, фантастика, фэнтези, боевик, драма, комедия, приключения, WEB-DLRip] DUB [Пифагор / Netflix] pb.wtf

Академия «Амбрелла» через торрент pb.wtf

Раздают: 23 [ 1 MB/s ] Качают: 4 [ 111 KB/s ]
Размер: 6.02 GB | Добавлен: 12 д. назад | Торрент скачан:121 раз
Скачать  

31-07-2020 10:41 Академия «Амбрелла» Скачать торрент  

Академия «Амбрелла» | The Umbrella Academy Год выпуска: 2020
Страна: США
Студия: Netflix, Dark Horse Entertainment
Жанр: фантастика, фэнтези, боевик, драма, комедия, приключения
Продолжительность: ~ 00:55:00
Перевод: Дублированный | Пифагор по заказу Netflix
Субтитры: Русские (форсированные, полные), английские

Режиссер: Сильвен Уайт, Питер Хор, Эллен Курас, Стивен Сурджик, Джереми Уэбб

rating

В ролях: Эллен Пэйдж, Том Хоппер, Эйдан Галлахер, Дэвид Кастаньеда, Роберт Шиэн, Эмми Рэвер-Лэмпман, Кэмерон Бриттон, Иден Кьюпид, Кэмерон Бродер, Итан Хван, Адам Годли, Ти Джей МакГиббон, Колм Фьоре, Мюррей Фюрроу, Коди Рэй Томпсон, Джастин Х. Мин

Описание: В октябре 1989 года 43 женщины из разных стран мира рожают детей, даже не будучи беременными. Некоторые из младенцев наделены необычайными способностями вроде сверхчеловеческой силы, выносливости и даже умения левитировать, а также манипулировать сознанием. Миллиардер сэр Реджинальд Харгривз (Колм Фиор) находит и усыновляет так много из этих детей, как только может, и воспитывает команду супергероев в основанной им Академии «Амбрелла». Странное семейство время от времени спасает мир, но не питает теплых чувств к отчиму. После загадочной смерти Харгривза разбежавшиеся по разным частям света воспитанники снова собираются вместе в стенах Академии. Они уже больше не дети, а психологически нестабильные взрослые, травмированные своим специфическим родителем и его методами воспитания. Как можно скорее им нужно преодолеть отчужденность и недоверие, чтобы спасти мир, конец которого ожидается через восемь дней...

Качество: WEB-DLRip
Формат: AVI

Видео: 704x352, XviD ~1597 kbps avg, 0.30 bit/pixel
Аудио №1: 48 kHz, MPEG Layer 3, 2 ch, ~128.00 kbps avg
Аудио №2: 48 kHz, MPEG Layer 3, 2 ch, ~128.00 kbps avg
скриншот  скриншот  скриншот  скриншот  

Общее
Полное имя : C:\The Umbrella Academy 2\The.Umbrella.Academy.s02e01.avi
Формат : AVI
Формат/Информация : Audio Video Interleave
Размер файла : 630 Мбайт
Продолжительность : 47 м. 1 с.
Общий поток : 1872 Кбит/сек
Программа кодирования : VirtualDubMod 1.5.10.2 (build 2540/release)
Библиотека кодирования : VirtualDubMod build 2540/release

Видео
Идентификатор : 0
Формат : MPEG-4 Visual
Профиль формата : Advanced Simple@L5
Настройки формата : BVOP1 / Custom Matrix
Параметр BVOP формата : 1
Параметр QPel формата : Нет
Параметр GMC формата : Без точки перехода
Параметр матрицы формата : Выборочная
Идентификатор кодека : XVID
Идентификатор кодека/Подсказка : XviD
Продолжительность : 47 м. 1 с.
Битрейт : 1597 Кбит/сек
Ширина : 704 пикселя
Высота : 352 пикселя
Соотношение сторон : 2,000
Частота кадров : 23,976 (24000/1001) кадра/сек
Цветовое пространство : YUV
Субдискретизация насыщенности : 4:2:0
Битовая глубина : 8 бит
Тип развёртки : Прогрессивная
Метод сжатия : С потерями
Бит/(Пиксели*Кадры) : 0.258
Размер потока : 515 Мбайт (82%)
Библиотека кодирования : XviD 73

Аудио #1
Идентификатор : 1
Формат : MPEG Audio
Версия формата : Version 1
Профиль формата : Layer 3
Настройки формата : Joint stereo / MS Stereo
Идентификатор кодека : 55
Идентификатор кодека/Подсказка : MP3
Продолжительность : 47 м. 1 с.
Вид битрейта : Постоянный
Битрейт : 128 Кбит/сек
Каналы : 2 канала
Частота : 48,0 КГц
Метод сжатия : С потерями
Размер потока : 43,0 Мбайт (7%)
Выравнивание : Разделение по промежуткам

Аудио #2
Идентификатор : 2
Формат : MPEG Audio
Версия формата : Version 1
Профиль формата : Layer 3
Настройки формата : Joint stereo / MS Stereo
Идентификатор кодека : 55
Идентификатор кодека/Подсказка : MP3
Продолжительность : 47 м. 1 с.
Вид битрейта : Постоянный
Битрейт : 128 Кбит/сек
Каналы : 2 канала
Частота : 48,0 КГц
Метод сжатия : С потерями
Размер потока : 43,0 Мбайт (7%)
Выравнивание : Разделение по промежуткам

Внимание! Раздача ведётся путём добавления новых серий; при каждом добавлении создаётся новый торрент.
Чтобы начать докачку новой серии, пользователям необходимо сделать следующее:
1. Остановить скачивание;
2. Удалить старый торрент у себя из клиента (старые серии удалять не надо);
3. Скачать новый торрент и запустить его у себя в клиенте вместо старого, при этом указать клиенту путь в старую папку куда и должно происходить скачивание новых серий. Ваш клиент при этом должен произвести хеширование (проверку) старой папки и будет докачивать только те серии, которых у вас ещё нет. Старые серии при этом не удаляются, а продолжают раздаваться! Eсли вы уже удалили старые серии, то предотвратить повторную закачку старых серий можно, отжав галочку в соответствующих местах при запуске нового торрента.

pb.wtf



Скачать Академия «Амбрелла» через торрент https://i6.imageban.ru/out/2020/07/29/ac5ed5956201bbcf83c428e9301578cd.jpg Скачать фильм Академия «Амбрелла» через торрент бесплантно в хорошем качестве Описание: В октябре 1989 года 43 женщины из разных стран мира рожают детей, даже не будучи беременными. Некоторые из младенцев наделены ... 9.8 10 5
Торрент: Зарегистрирован [2020-08-01 00:38] · скачан: 121 раз
Статус: √ проверено
Размер: 6.02 GB
Как cкачать? Как скачать Академия «Амбрелла» через торрент | qTorrent

% Раздел Тема Автор DL S | L
Зарубежные сериалы [ 25.71 GB ] Академия «Амбрелла» / The Umbrella Academy / Сезон: 2 / Серии: 1-10 из 10 [2020 WEB-DL 1080p] MVO [NewStudio] bober100 Скачать
6 | 1
Зарубежные сериалы [ 10.33 GB ] Академия «Амбрелла» / The Umbrella Academy / Сезон: 2 / Серии: 1-4 из 10 [2020 WEB-DL 1080p] MVO [LostFilm] bober100 Скачать
2 | 0
Зарубежные сериалы [ 10.1 GB ] Академия «Амбрелла» / The Umbrella Academy / Сезон: 2 / Серии: 1-10 из 10 [2020 WEB-DL 720p] DUB [Пифагор / Netflix] bober100 Скачать
20 | 0
Зарубежные сериалы [ 25.71 GB ] Академия «Амбрелла» / The Umbrella Academy / Сезон: 2 / Серии: 1-10 из 10 [2020 WEB-DL 1080p] DUB [Пифагор / Netflix] bober100 Скачать
26 | 5

28-11-2019 20:33  

Отключить всю рекламу на сайте

    Дорогой пользователь! Огромная просьба, поблагодарите релизера, оцените раздачу и оставьте свои комментарий, если Вы скачали Академия «Амбрелла» через торрент бесплатно! Внесите свою лепту в развитие PiratBit!
    Комментировать посты могут только пользователи прошедшие не сложную регистрацию
    Показать сообщения:    

    Академия «Амбрелла» через торрент
    Скачать бесплатно Академия «Амбрелла»
    Академия «Амбрелла» скачать торрент
    Академия «Амбрелла» смотреть онлайн
    Cкачать фильм Академия «Амбрелла» бесплатно
    Академия «Амбрелла» скачать торрент в хорошем качестве
    Академия «Амбрелла» смотреть онлайн бесплатно в хорошем качестве


    Вы не можете начинать темы
    Вы не можете отвечать на сообщения
    Вы не можете редактировать свои сообщения
    Вы не можете удалять свои сообщения
    Вы не можете голосовать в опросах
    Вы не можете прикреплять файлы к сообщениям
    Вы можете скачивать файлы