2 сезон

iTunes

1 сезон

1

iTunes

iTunes

iTunes

1 сезон

RePack

30

ИГРА 18+

pack

ВАЖНО

!!Акция!!

Alien_RageХит недели

RePack

MK11
pack

Забери бонус

RePack

jed

!!Акция!!

Alien_Rage

RePack

fifa19

RePack

Assassins Creed: Odyssey

RePack

NEED FOR SPEED™ PAYBACK

4 сезон

9 сезон

Бесстыжие 9 сезон

Все сериалы

все сериалы на PB.wtf

RePack

FAR CRY 5
  

Тролли. Мировой тур / Trolls World Tour (Уолт Дорн, Дэвид П. Смит) [2020, мультфильм, мюзикл, фэнтези, комедия, приключения, семейный, BDRip-AVC] DUB [Лицензия] pb.wtf

Тролли. Мировой тур через торрент pb.wtf

Раздают: 4 [ 0 KB/s ]
Размер: 1.46 GB | Добавлен: 2 мес. 30 д. назад | Торрент скачан:58 раз
Скачать  

31-07-2020 13:53 Тролли. Мировой тур Скачать торрент  

Тролли. Мировой тур | Trolls World Tour
Год выпуска: 2020
Страна: США
Студия: DreamWorks Animation
Жанр: мультфильм, мюзикл, фэнтези, комедия, приключения, семейный
Продолжительность: 01:30:43
Перевод: Дублированный | Лицензия Blu-ray EUR
Субтитры: Русские (Forced, full)

Режиссер: Уолт Дорн, Дэвид П. Смит

rating

В ролях: Джастин Тимберлейк, Анна Кендрик, Джеймс Корден, Оззи Осборн, Рэйчел Блум, Андерсон Паак, Джордж Клинтон, Мэри Джей Блайдж, Келли Кларксон, Рон Фанчес

Описание: Поп-тролли в шоке — оказывается, мир музыки гораздо больше, чем они думали. Рейвы, оупен-эйры, классические концерты и, конечно, хип-хоп баттлы — впереди их ждет головокружительное веселье. Но неудержимая королева Рокс планирует уничтожить все… чтобы миром безоговорочно правил хард-рок! Розочка, Цветан и их новые друзья отправляются в невероятное путешествие: им предстоит объединить всех троллей и помешать Рокс.

Качество: BDRip-AVC
Формат: MKV

Видео: 1024x436 (2.35:1), 23.976 fps, MPEG-4 AVC ~ 1852 Kbps avg, 0.173 bit/pixel
Аудио: AC3, 48 kHz, 6 ch, ~448.00 kbps avg | русский | Blu-Ray EUR
скриншот  скриншот  скриншот  скриншот  скриншот  

Общее
Уникальный идентификатор : 190409712980319540392885599604408000348 (0x8F3F93A8B662E6F7E6E9123F93971F5C)
Полное имя : Trolls.World.Tour.2020.Lic.BDRip.1.46Gb.x264.mkv
Формат : Matroska
Версия формата : Version 4
Размер файла : 1, 46 Гбайт
Продолжительность : 1 ч. 30 м.
Общий поток : 2 302 Кбит/сек
Название фильма : Тролли. Мировой тур / Trolls World Tour (2020)
Дата кодирования : UTC 2020-07-31 12:26:47
Программа кодирования : mkvmerge v47.0.0 ('Black Flag') 64-bit
Библиотека кодирования : libebml v1.3.10 + libmatroska v1.5.2
Обложка : Yes
Attachments : cover.jpg

Видео
Идентификатор : 1
Формат : AVC
Формат/Информация : Advanced Video Codec
Профиль формата : High@L4.1
Настройки формата : CABAC / 10 Ref Frames
Параметр CABAC формата : Да
Параметр RefFrames формата : 10 кадров
Идентификатор кодека : V_MPEG4/ISO/AVC
Продолжительность : 1 ч. 30 м.
Битрейт : 1 852 Кбит/сек
Ширина : 1 024 пикселя
Высота : 436 пикселей
Соотношение сторон : 2, 35:1
Режим частоты кадров : Постоянный
Частота кадров : 23, 976 кадра/сек
Цветовое пространство : YUV
Субдискретизация насыщенности : 4:2:0
Битовая глубина : 8 бит
Тип развёртки : Прогрессивная
Бит/(Пиксели*Кадры) : 0.173
Размер потока : 1, 17 Гбайт (80%)
Заголовок : #stillet
Библиотека кодирования : x264 core 152 r2851bm ba24899
Настройки программы : cabac=1 / ref=10 / deblock=1:-2:-2 / analyse=0x3:0x113 / me=umh / subme=11 / psy=1 / psy_rd=1.00:0.15 / mixed_ref=1 / me_range=32 / chroma_me=1 / trellis=2 / 8x8dct=1 / cqm=0 / deadzone=21, 11 / fast_pskip=0 / chroma_qp_offset=-3 / threads=12 / lookahead_threads=3 / sliced_threads=0 / nr=0 / decimate=0 / interlaced=0 / bluray_compat=0 / constrained_intra=0 / bframes=11 / b_pyramid=2 / b_adapt=2 / b_bias=0 / direct=3 / weightb=1 / open_gop=0 / weightp=2 / keyint=240 / keyint_min=23 / scenecut=40 / intra_refresh=0 / rc=2pass / mbtree=0 / bitrate=1852 / ratetol=1.0 / qcomp=0.60 / qpmin=0 / qpmax=69 / qpstep=4 / cplxblur=20.0 / qblur=0.5 / ip_ratio=1.40 / pb_ratio=1.30 / aq=1:1.00
Язык : English
Default : Да
Forced : Нет

Аудио
Идентификатор : 2
Формат : AC-3
Формат/Информация : Audio Coding 3
Коммерческое название : Dolby Digital
Идентификатор кодека : A_AC3
Продолжительность : 1 ч. 30 м.
Вид битрейта : Постоянный
Битрейт : 448 Кбит/сек
Каналы : 6 каналов
Channel layout : L R C LFE Ls Rs
Частота : 48, 0 КГц
Частота кадров : 31, 250 кадров/сек (1536 SPF)
Метод сжатия : С потерями
Размер потока : 291 Мбайт (19%)
Заголовок : Blu-ray EUR
Язык : Russian
Service kind : Complete Main
Default : Да
Forced : Да

Текст #1
Идентификатор : 3
Формат : UTF-8
Идентификатор кодека : S_TEXT/UTF8
Идентификатор кодека/Информация : UTF-8 Plain Text
Продолжительность : 1 ч. 29 м.
Битрейт : 0 бит/сек
Count of elements : 14
Размер потока : 507 байт (0%)
Заголовок : Forced
Язык : Russian
Default : Да
Forced : Да

Текст #2
Идентификатор : 4
Формат : UTF-8
Идентификатор кодека : S_TEXT/UTF8
Идентификатор кодека/Информация : UTF-8 Plain Text
Продолжительность : 1 ч. 23 м.
Битрейт : 97 бит/сек
Count of elements : 1265
Размер потока : 59, 6 Кбайт (0%)
Заголовок : Full
Язык : Russian
Default : Нет
Forced : Нет

Меню
00:00:00.000 : en:Chapter 01
00:05:12.771 : en:Chapter 02
00:08:44.899 : en:Chapter 03
00:12:51.729 : en:Chapter 04
00:18:25.813 : en:Chapter 05
00:22:58.836 : en:Chapter 06
00:27:36.405 : en:Chapter 07
00:30:34.583 : en:Chapter 08
00:34:23.353 : en:Chapter 09
00:38:27.138 : en:Chapter 10
00:41:13.096 : en:Chapter 11
00:46:19.276 : en:Chapter 12
00:50:12.426 : en:Chapter 13
00:54:22.926 : en:Chapter 14
00:59:22.726 : en:Chapter 15
01:03:39.274 : en:Chapter 16
01:06:25.523 : en:Chapter 17
01:10:18.297 : en:Chapter 18
01:15:41.829 : en:Chapter 19
01:21:19.917 : en:Chapter 20

pb.wtf



Скачать Тролли. Мировой тур через торрент https://i112.fastpic.ru/big/2020/0731/1f/ad5c68cc89b4a242df1ff0547263211f.jpg Скачать фильм Тролли. Мировой тур через торрент бесплантно в хорошем качестве Описание: Поп-тролли в шоке — оказывается, мир музыки гораздо больше, чем они думали. Рейвы, оупен-эйры, классические концерты и, конечно, ... 10 10 3
Торрент: Зарегистрирован [2020-07-31 13:53] · скачан: 58 раз
Статус: √ проверено
Размер: 1.46 GB
Как cкачать? Как скачать Тролли. Мировой тур через торрент | qTorrent

% Раздел Тема Автор DL S | L
Иностранные мультфильмы [ 1.46 GB ] Тролли. Мировой тур / Trolls World Tour [2020 мультфильм мюзикл BDRip] - [] Twi7ter Скачать
46 | 1
Иностранные мультфильмы [ 744 MB ] Тролли. Мировой тур / Trolls World Tour [2020 мультфильм мюзикл HDRip] DUB [] bober100 Скачать
1 | 0
3D Мультфильмы [ 8.29 GB ] Тролли. Мировой тур 3Д / Trolls World Tour 3D [2020 мультфильм мюзикл BDRip 1080p ] DUB [] bober100 Скачать
2 | 0
Иностранные мультфильмы [ 1.46 GB ] Тролли. Мировой тур / Trolls World Tour [2020 мультфильм мюзикл BDRip] DUB [] bober100 Скачать
1 | 0
Зарубежные Мультфильмы (BDRip 1080p, 720p, Blu-ray, BD-Remux) [ 34.14 GB ] Тролли. Мировой тур / Trolls World Tour [2020 мультфильм мюзикл Blu-Ray 1080p ] DUB [] bober100 Скачать
1 | 0
Зарубежные Мультфильмы (BDRip 1080p, 720p, Blu-ray, BD-Remux) [ 30.77 GB ] Тролли. Мировой тур / Trolls World Tour [2020 мультфильм мюзикл BD Remux 1080p ] DUB [] bober100 Скачать
1 | 0
3D Мультфильмы [ 12.65 GB ] Тролли. Мировой тур в 3Д / Trolls World Tour 3D [2020 мультфильм мюзикл BDRip 1080p] OverUnder / Вертикальная стереопара serega768 Скачать
1 | 0

28-11-2019 20:33  

Отключить всю рекламу на сайте

    Дорогой пользователь! Огромная просьба, поблагодарите релизера, оцените раздачу и оставьте свои комментарий, если Вы скачали Тролли. Мировой тур через торрент бесплатно! Внесите свою лепту в развитие PiratBit!
    Комментировать посты могут только пользователи прошедшие не сложную регистрацию
    Показать сообщения:    

    Тролли. Мировой тур через торрент
    Скачать бесплатно Тролли. Мировой тур
    Тролли. Мировой тур скачать торрент
    Тролли. Мировой тур смотреть онлайн
    Cкачать фильм Тролли. Мировой тур бесплатно
    Тролли. Мировой тур скачать торрент в хорошем качестве
    Тролли. Мировой тур смотреть онлайн бесплатно в хорошем качестве


    Вы не можете начинать темы
    Вы не можете отвечать на сообщения
    Вы не можете редактировать свои сообщения
    Вы не можете удалять свои сообщения
    Вы не можете голосовать в опросах
    Вы не можете прикреплять файлы к сообщениям
    Вы можете скачивать файлы