Ссылка на приватное зеркало всего за 1$. Внимание количество ограничено!!!

iTunes

iTunes

iTunes

1

iTunes

iTunes

iTunes

WEBRip

iTunes

30
pack

$ от Little Big

ВАЖНО

!!Акция!!

Alien_RageХит недели

RePack

Resident Evil 21

ИГРА 18+

pack

RePack

jed

!!Акция!!

Alien_Rage

RePack

fifa19

RePack

Assassins Creed: Odyssey

RePack

NEED FOR SPEED™ PAYBACK

4 сезон

9 сезон

Бесстыжие 9 сезон

Все сериалы

все сериалы на PB.wtf

RePack

FAR CRY 5
  

Доллар / One Dollar / Сезон: 1 / Серии: 1-10 из 10 (Крэйг Зобел) [2018, Триллер, WEBRip 1080p] [MVO] (HDRezka Studio) pb.wtf

Доллар через торрент pb.wtf

Раздают: 3 [ 0 KB/s ]
Размер: 17.12 GB | Добавлен: 13 д. назад | Торрент скачан:19 раз
Скачать  

31-07-2020 14:07 Доллар Скачать торрент  

Доллар / One Dollar
Информация о сериале

Год выпуска: 2018
Жанр: Триллер
Страна: США
Студия: CBS
Продолжительность: 1 x ~ 00:53:00
Перевод: Профессиональный (многоголосый закадровый) *HDRezka Studio *
Субтитры: русские (forced)

Режиссер: Крэйг Зобел

В ролях: Джон Кэрролл Линч, Натаниэль Мартелло-Уайт, Кристофер Денэм, Лесли Одом мл., Джошуа Битон, Филип Эттинджер, Грейси Лоуренс, Джефф Перри, Стерджил Симпсон

О фильме: Маленький американский городок приходит в себя после экономического кризиса 2007-2009 гг. Меняя владельцев, купюра в один доллар постепенно объединяет группу незнакомцев, причастных к шокирующим убийствам.



Файл

Качество: WEBRip 1080p
Кодек: x264 (AVC)
Видео: 1920x1040 at 24.000 fps, MPEG-4 AVC, ~4 595 kbps avg
Аудио: 48 kHz, AC3, 2 ch, ~192.00 kbps avg
скриншот   скриншот   скриншот  
General
Unique ID : 89549707634791902513298688600269279773 (0x435EA576D53BB47BAF45ECE7ABA6521D)
Complete name : G:\One.Dollar.2018.S01.1080p\One.Dollar.S01E01.WEBRip.1080p.rus.2.0.HDREZKA.STUDIO.mkv
Format : Matroska
Format version : Version 4
File size : 1.77 GiB
Duration : 51 min 53 s
Overall bit rate mode : Variable
Overall bit rate : 4 884 kb/s
Encoded date : UTC 2020-07-30 07:12:24
Writing application : mkvmerge v47.0.0 ('Black Flag') 64-bit
Writing library : libebml v1.3.10 + libmatroska v1.5.2

Video
ID : 1
Format : AVC
Format/Info : Advanced Video Codec
Format profile : High@L4.1
Format settings : CABAC / 1 Ref Frames
Format settings, CABAC : Yes
Format settings, Reference : 1 frame
Codec ID : V_MPEG4/ISO/AVC
Duration : 51 min 53 s
Bit rate mode : Variable
Bit rate : 4 595 kb/s
Maximum bit rate : 2 000 kb/s
Width : 1 920 pixels
Height : 1 040 pixels
Display aspect ratio : 1.85:1
Frame rate mode : Constant
Frame rate : 24.000 FPS
Color space : YUV
Chroma subsampling : 4:2:0
Bit depth : 8 bits
Scan type : Progressive
Bits/(Pixel*Frame) : 0.096
Stream size : 1.67 GiB (94%)
Default : Yes
Forced : No
Duration_Source : General_Duration

Audio
ID : 2
Format : AC-3
Format/Info : Audio Coding 3
Commercial name : Dolby Digital
Codec ID : A_AC3
Duration : 51 min 53 s
Bit rate mode : Constant
Bit rate : 192 kb/s
Channel(s) : 2 channels
Channel layout : L R
Sampling rate : 48.0 kHz
Frame rate : 31.250 FPS (1536 SPF)
Compression mode : Lossy
Stream size : 71.3 MiB (4%)
Language : Russian
Service kind : Complete Main
Default : Yes
Forced : No
Duration_Source : General_Duration
pb.wtf



Скачать Доллар через торрент https://i112.fastpic.ru/big/2020/0731/5a/745c457231546c8b8e530d2bf1d7cb5a.jpeg Скачать фильм Доллар через торрент бесплантно в хорошем качестве О фильме: Маленький американский городок приходит в себя после экономического кризиса 2007-2009 гг. Меняя владельцев, купюра в один доллар ... 10 10 3
Торрент: Зарегистрирован [2020-07-31 14:07] · скачан: 19 раз
Статус: √ проверено
Размер: 17.12 GB
Как cкачать? Как скачать Доллар через торрент | qTorrent

% Раздел Тема Автор DL S | L
Зарубежные сериалы [ 6.36 GB ] Доллар / One Dollar / Сезон: 1 / Серии: 1-10 из 10 [2018 WEB-DLRip] [MVO] killermax2013 Скачать
2 | 0
Зарубежные сериалы [ 6.2 GB ] Доллар / One Dollar / Сезон: 1 / Серии: 1-10 из 10 [2018 WEBRip] [DVO] killermax2013 Скачать
1 | 1
Зарубежные сериалы [ 6.96 GB ] Доллар / One Dollar / Сезон: 1 / Серии: 1-10 из 10 [2018 WEB-DLRip] DVO [SunshineStudio] bober100 Скачать
1 | 0
Зарубежные сериалы [ 6.44 GB ] Доллар / One Dollar / Сезон: 1 / Серии: 1-10 из 10 [2018 WEB-DLRip] DVO [SunshineStudio] bober100 Скачать
1 | 0
Зарубежные сериалы [ 6.97 GB ] Доллар / One Dollar / Сезон: 1 / Серии: 1-6 из 10 [2018 WEB-DL 720p] [DVO] killermax2013 Скачать
1 | 0
Зарубежные сериалы [ 20.33 GB ] Доллар / One Dollar / Сезон: 1 / Серии: 1-10 из 10 [2018 WEB-DL 1080p] [MVO] killermax2013 Скачать
1 | 0
Зарубежные сериалы [ 12.26 GB ] Доллар / One Dollar / Сезон: 1 / Серии: 1-9 из 10 [2018 WEBRip 720p] MVO [ColdFilm] bober100 Скачать
1 | 0

28-11-2019 20:33  

Отключить всю рекламу на сайте

01-08-2020 11:43 Доллар Скачать торрент  

скрины-огонь!.. pb.wtf
Kkillermax2013 писал(а):

смотрят фильм/сериал а не на скрины ))



    Дорогой пользователь! Огромная просьба, поблагодарите релизера, оцените раздачу и оставьте свои комментарий, если Вы скачали Доллар через торрент бесплатно! Внесите свою лепту в развитие PiratBit!
    Комментировать посты могут только пользователи прошедшие не сложную регистрацию
    Показать сообщения:    

    Доллар через торрент
    Скачать бесплатно Доллар
    Доллар скачать торрент
    Доллар смотреть онлайн
    Cкачать фильм Доллар бесплатно
    Доллар скачать торрент в хорошем качестве
    Доллар смотреть онлайн бесплатно в хорошем качестве


    Вы не можете начинать темы
    Вы не можете отвечать на сообщения
    Вы не можете редактировать свои сообщения
    Вы не можете удалять свои сообщения
    Вы не можете голосовать в опросах
    Вы не можете прикреплять файлы к сообщениям
    Вы можете скачивать файлы