Ссылка на приватное зеркало всего за 1$. Внимание количество ограничено!!!

iTunes

iTunes

iTunes

1

iTunes

iTunes

iTunes

WEBRip

iTunes

30
pack

$ от Little Big

ВАЖНО

!!Акция!!

Alien_RageХит недели

RePack

Resident Evil 21

ИГРА 18+

pack

RePack

jed

!!Акция!!

Alien_Rage

RePack

fifa19

RePack

Assassins Creed: Odyssey

RePack

NEED FOR SPEED™ PAYBACK

4 сезон

9 сезон

Бесстыжие 9 сезон

Все сериалы

все сериалы на PB.wtf

RePack

FAR CRY 5
  

Нагиев на карантине / Сезон: 2 / Серии: 1-6 из 10 (Сарик Андреасян) [2020, Комедия, WEB-DL 720p, (Версия 18+)] pb.wtf

Нагиев на карантине через торрент pb.wtf

Раздают: 14 [ 394 KB/s ]
Размер: 2.16 GB | Добавлен: 6 д. назад | Торрент скачан:46 раз
Скачать  

01-08-2020 05:21 Нагиев на карантине Скачать торрент  

Нагиев на карантине
Год выпуска: 2020
Страна: Россия
Жанр: Комедия
Продолжительность: ~ 00:15:00
Субтитры: отсутствуют
Версия 18+. Внимание! Присутствует ненормативная лексика.

Режиссер: Сарик Андреасян



В ролях: Дмитрий Нагиев, Кирилл Нагиев

Описание: В новом сезоне Дмитрий снова хозяин своей жизни! Результаты теста Нагиева отрицательные - он свободен и от коронавируса, и от карантина. Дмитрий снова готов к съемкам, сериалам, перелетам, ресторанам, но режим самоизоляции не снят, и сколько это продлится - не понятно. Он не готов еще несколько недель проводить вместе с женой, с которой у него в последнее время разногласия и решается прорываться в город! На первом же посту, полиция выписывает Дмитрию штраф за отсутствие перчаток и маски, и после непродолжительной перепалки, настаивает, чтобы он как законопослушный гражданин отправился по месту прописки. Дмитрий смотрит паспорт и строит забытый маршрут в свой самый первый дом, в котором он прописан, но в котором давно живёт сын Кирилл со своей девушкой. Сразу два Нагиевых в одном месте! Дмитрий и Кирилл...

Качество: WEB-DL 720p
Формат: MKV

Видео: MPEG4 AVC Video, H264, 1280x538, 25 fps, ~2936 kbps, 0.171 bit/pixel
Аудио: 48.0 kHz, AC3 Dolby Digital, 2/0 (L,R) ch, ~ 192 kbps
скриншот  скриншот  скриншот  скриншот  

General
Unique ID : 231135074287890431501683594024115402292 (0xADE2FEFEE5AAC397AD8240B35A0E7634)
Complete name : C:Nagiev.na.karantine.S02.E01.2020.WEB-DL.(720p).ExKinoRay.mkv
Format : Matroska
File size : 390 MiB
Duration : 17mn 5s
Overall bit rate : 3 191 Kbps
Encoded date : UTC 2020-07-10 15:59:28
Writing application : mkvmerge v6.9.1 ('Blue Panther') 64bit built on Apr 18 2014 18:23:38
Writing library : libebml v1.3.0 + libmatroska v1.4.1

Video
ID : 1
Format : AVC
Format/Info : Advanced Video Codec
Format profile : High@L4.1
Format settings, CABAC : Yes
Format settings, ReFrames : 9 frames
Codec ID : V_MPEG4/ISO/AVC
Duration : 17mn 5s
Bit rate : 2 936 Kbps
Width : 1 280 pixels
Height : 538 pixels
Display aspect ratio : 2.35:1
Frame rate : 25.000 fps
Color space : YUV
Chroma subsampling : 4:2:0
Bit depth : 8 bits
Scan type : Progressive
Bits/(Pixel*Frame) : 0.171
Stream size : 359 MiB (92%)
Color primaries : BT.709-5, BT.1361, IEC 61966-2-4, SMPTE RP177
Transfer characteristics : BT.709-5, BT.1361
Matrix coefficients : BT.709-5, BT.1361, IEC 61966-2-4 709, SMPTE RP177

Audio
ID : 2
Format : AC-3
Format/Info : Audio Coding 3
Mode extension : CM (complete main)
Codec ID : A_AC3
Duration : 17mn 5s
Bit rate mode : Constant
Bit rate : 192 Kbps
Channel(s) : 2 channels
Channel positions : Front: L R
Sampling rate : 48.0 KHz
Bit depth : 16 bits
Compression mode : Lossy
Stream size : 23.5 MiB (6%)
Language : Russian

Раздача ведётся путём добавления новых серий; при каждом добавлении создаётся новый торрент.
Чтобы начать докачку новой серии, пользователям необходимо сделать следующее:
1. остановить скачивание,
2. удалить старый торрент у себя из клиента (старые серии удалять не надо),
3. скачать новый торрент и запустить его у себя в клиенте вместо старого, при этом указать клиенту путь в старую папку, куда и должно происходить скачивание новых серий.

Ваш клиент при этом должен произвести хеширование (проверку) старой папки (если не производит сам - помогите ему сделать это), и будет докачивать только те серии которых у вас ещё нет. Старые серии при этом не удаляются, а продолжают раздаваться!

Eсли вы уже удалили старые серии, то предотвратить повторную закачку старых серий можно, отжав галочку в соответствующих местах при запуске нового торрента. По возможности, желательно не удалять старые серии как можно дольше, чтобы релизёр не столько продолжал раздавать старые серии, а смог сконцентрироваться на новых.

Совет для тех, кто не хочет ждать перехеширования:
Создайте ещё одну папку рядом с папкой сериала (рядом, а не в ней!!!). Каждую новую серию после удачной загрузки копируйте в новую папку так чтобы ваша основная папка всегда была пуста. Когда ваш новый торрент предложит вам закачать все файлы, выберете только последнюю. Для сидирования же укажите адрес новой папки.

Как закачать отдельный файл из торрента или докачать ранее пропущенные файлы торрента!
pb.wtf



Скачать Нагиев на карантине через торрент https://i112.fastpic.ru/big/2020/0710/eb/75e66b3bdb77db32f91f0b5264eed1eb.jpg Скачать фильм Нагиев на карантине через торрент бесплантно в хорошем качестве Описание: В новом сезоне Дмитрий снова хозяин своей жизни! Результаты теста Нагиева отрицательные - он свободен и от коронавируса, и от ... 10 10 9
Торрент: Зарегистрирован [2020-08-06 22:34] · скачан: 46 раз
Статус: √ проверено
Размер: 2.16 GB
Как cкачать? Как скачать Нагиев на карантине через торрент | qTorrent

% Раздел Тема Автор DL S | L
Наши сериалы [ 3.51 GB ] Нагиев на карантине / Сезон: 2 / Серии: 1-6 из 10 [2020 WEB-DL 1080p ] bober100 Скачать
15 | 2

28-11-2019 20:33  

Отключить всю рекламу на сайте

01-08-2020 09:32 Нагиев на карантине Скачать торрент  

как он мог опуститься до такого говна((((pb.wtf



01-08-2020 11:28 Нагиев на карантине Скачать торрент  

werter345 писал(а):

как он мог опуститься до такого говна((((

он же жалуется что за рекламу стали мало платить 12000000 всего , вот и пошел во все тяжкие )))pb.wtf



03-08-2020 12:14 Нагиев на карантине Скачать торрент  

действительно...продолжение не нужно было снимать, это точно, чепуха полная не тратьте времяpb.wtf



    Дорогой пользователь! Огромная просьба, поблагодарите релизера, оцените раздачу и оставьте свои комментарий, если Вы скачали Нагиев на карантине через торрент бесплатно! Внесите свою лепту в развитие PiratBit!
    Комментировать посты могут только пользователи прошедшие не сложную регистрацию
    Показать сообщения:    

    Нагиев на карантине через торрент
    Скачать бесплатно Нагиев на карантине
    Нагиев на карантине скачать торрент
    Нагиев на карантине смотреть онлайн
    Cкачать фильм Нагиев на карантине бесплатно
    Нагиев на карантине скачать торрент в хорошем качестве
    Нагиев на карантине смотреть онлайн бесплатно в хорошем качестве


    Вы не можете начинать темы
    Вы не можете отвечать на сообщения
    Вы не можете редактировать свои сообщения
    Вы не можете удалять свои сообщения
    Вы не можете голосовать в опросах
    Вы не можете прикреплять файлы к сообщениям
    Вы можете скачивать файлы