2 сезон

iTunes

1 сезон

1

iTunes

iTunes

iTunes

1 сезон

RePack

30

ИГРА 18+

pack

ВАЖНО

!!Акция!!

Alien_RageХит недели

RePack

MK11
pack

Забери бонус

RePack

jed

!!Акция!!

Alien_Rage

RePack

fifa19

RePack

Assassins Creed: Odyssey

RePack

NEED FOR SPEED™ PAYBACK

4 сезон

9 сезон

Бесстыжие 9 сезон

Все сериалы

все сериалы на PB.wtf

RePack

FAR CRY 5
  

Тролли. Мировой тур 3Д / Trolls World Tour 3D (Уолт Дорн, Дэвид П. Смит) [2020, мультфильм, мюзикл, фэнтези, комедия, приключения, семейный, BDRip 1080p, (Half OverUnder)] DUB [Лицензия] pb.wtf

Тролли. Мировой тур 3Д через торрент pb.wtf

Раздают: 1 [ 0 KB/s ]
Размер: 8.29 GB | Добавлен: 2 мес. 28 д. назад | Торрент скачан:19 раз
Скачать  

02-08-2020 08:29 Тролли. Мировой тур 3Д Скачать торрент  

Тролли. Мировой тур 3Д
Trolls World Tour 3D

«Счастье будет всем!»

Год выпуска: 2020
Страна: США
Студия: DreamWorks Animation
Жанр: мультфильм, мюзикл, фэнтези, комедия, приключения, семейный
Продолжительность: 01:30:43
Перевод: Дублированный | Лицензия
Субтитры (SRT):
Вшитые (softsub):
#1 - Русские Форсированные [Ash61] (включены по умолчанию)
#2 - Русские Полные
#3 - English SDH

Внешние (UTF-8):
#1 - Русские Форсированные [Ash61] (включены по умолчанию)
#2 - Русские Полные

Режиссер: Уолт Дорн, Дэвид П. Смит

rating

В ролях: Джастин Тимберлейк, Анна Кендрик, Джеймс Корден, Оззи Осборн, Рэйчел Блум, Андерсон Паак, Джордж Клинтон, Мэри Джей Блайдж, Келли Кларксон, Рон Фанчес

Описание: Поп-тролли в шоке — оказывается, мир музыки гораздо больше, чем они думали. Рейвы, оупен-эйры, классические концерты и, конечно, хип-хоп баттлы — впереди их ждет головокружительное веселье. Но неудержимая королева Рокс планирует уничтожить все… чтобы миром безоговорочно правил хард-рок! Розочка, Цветан и их новые друзья отправляются в невероятное путешествие: им предстоит объединить всех троллей и помешать Рокс.

Качество: BDRip 1080p
Формат: MKV

Видео: AVC / 1920х1080p / 23,976 fps / 12.0 Mbps
Аудио #01: 48 kHz, AC3, 5.1, 640 Kbps | Дублированный | RUS |
Аудио #02: 48 kHz, AC3, 5.1, 448 Kbps | Оригинал | ENG |
Формат 3D: Half OverUnder / Вертикальная анаморфная стереопара
Порядок ракурсов: левый ракурс первый
скриншот  скриншот  скриншот  скриншот  скриншот  

General
Unique ID : 236782277787441380695092920377870461093 (0xB2229B9FEE5CEB739FD17C641A5928A5)
Complete name : D:TrollsWorldTour(2020)3D-hOU(Ash61)TrollsWorldTour(2020)3D-hOU(Ash61).mkv
Format : Matroska
Format version : Version 2
File size : 8.29 GiB
Duration : 1 h 30 min
Overall bit rate : 13.1 Mb/s
Movie name : Тролли. Мировой тур / Trolls World Tour (2020) in 3D
Encoded date : UTC 2020-07-31 23:43:42
Writing application : mkvmerge v5.8.0 ('No Sleep / Pillow') built on Sep 2 2012 15:37:04
Writing library : libebml v1.2.3 + libmatroska v1.3.0

Video
ID : 1
Format : AVC
Format/Info : Advanced Video Codec
Format profile : High@L4.1
Format settings : CABAC / 4 Ref Frames
Format settings, CABAC : Yes
Format settings, Reference : 4 frames
Codec ID : V_MPEG4/ISO/AVC
Duration : 1 h 30 min
Bit rate : 12.0 Mb/s
Width : 1 920 pixels
Height : 1 080 pixels
Display aspect ratio : 16:9
Frame rate mode : Constant
Frame rate : 23.976 (24000/1001) FPS
Color space : YUV
Chroma subsampling : 4:2:0
Bit depth : 8 bits
Scan type : Progressive
Bits/(Pixel*Frame) : 0.241
Stream size : 7.43 GiB (90%)
Title : BDRip by Ash61
Writing library : x264 core 146 r2538 121396c
Encoding settings : cabac=1 / ref=4 / deblock=1:-3:-3 / analyse=0x3:0x113 / me=umh / subme=10 / psy=1 / psy_rd=1.00:0.00 / mixed_ref=1 / me_range=32 / chroma_me=1 / trellis=2 / 8x8dct=1 / cqm=0 / deadzone=21,11 / fast_pskip=0 / chroma_qp_offset=-2 / threads=12 / lookahead_threads=2 / sliced_threads=0 / nr=0 / decimate=0 / interlaced=0 / bluray_compat=0 / constrained_intra=0 / bframes=9 / b_pyramid=2 / b_adapt=2 / b_bias=0 / direct=3 / weightb=1 / open_gop=0 / weightp=2 / keyint=250 / keyint_min=23 / scenecut=40 / intra_refresh=0 / rc_lookahead=60 / rc=2pass / mbtree=0 / bitrate=12000 / ratetol=1.0 / qcomp=0.70 / qpmin=0 / qpmax=69 / qpstep=4 / cplxblur=20.0 / qblur=0.5 / vbv_maxrate=40000 / vbv_bufsize=30000 / nal_hrd=none / filler=0 / frame-packing=4 / ip_ratio=1.40 / pb_ratio=1.30 / aq=1:0.70
Language : English
Default : Yes
Forced : No

Audio #1
ID : 2
Format : AC-3
Format/Info : Audio Coding 3
Commercial name : Dolby Digital
Codec ID : A_AC3
Duration : 1 h 30 min
Bit rate mode : Constant
Bit rate : 640 kb/s
Channel(s) : 6 channels
Channel layout : L R C LFE Ls Rs
Sampling rate : 48.0 kHz
Frame rate : 31.250 FPS (1536 SPF)
Compression mode : Lossy
Stream size : 415 MiB (5%)
Title : Дубляж (BD)
Language : Russian
Service kind : Complete Main
Default : Yes
Forced : No

Audio #2
ID : 3
Format : AC-3
Format/Info : Audio Coding 3
Commercial name : Dolby Digital
Codec ID : A_AC3
Duration : 1 h 30 min
Bit rate mode : Constant
Bit rate : 448 kb/s
Channel(s) : 6 channels
Channel layout : L R C LFE Ls Rs
Sampling rate : 48.0 kHz
Frame rate : 31.250 FPS (1536 SPF)
Compression mode : Lossy
Stream size : 291 MiB (3%)
Title : Original
Language : English
Service kind : Complete Main
Default : No
Forced : No

Text #1
ID : 4
Format : UTF-8
Codec ID : S_TEXT/UTF8
Codec ID/Info : UTF-8 Plain Text
Title : Форсированные [v.Ash61]
Language : Russian
Default : Yes
Forced : No

Text #2
ID : 5
Format : UTF-8
Codec ID : S_TEXT/UTF8
Codec ID/Info : UTF-8 Plain Text
Title : Полные
Language : Russian
Default : No
Forced : No

Text #3
ID : 6
Format : UTF-8
Codec ID : S_TEXT/UTF8
Codec ID/Info : UTF-8 Plain Text
Title : SDH
Language : English
Default : No
Forced : No

Menu
00:00:00.000 : :1
00:05:12.771 : :2
00:08:44.899 : :3
00:12:51.729 : :4
00:18:25.813 : :5
00:22:58.836 : :6
00:27:36.405 : :7
00:30:34.583 : :8
00:34:23.353 : :9
00:38:27.138 : :10
00:41:13.096 : :11
00:46:19.276 : :12
00:50:12.426 : :13
00:54:22.926 : :14
00:59:22.726 : :15
01:03:39.274 : :16
01:06:25.523 : :17
01:10:18.297 : :18
01:15:41.829 : :19
01:21:19.917 : :20

pb.wtf



Скачать Тролли. Мировой тур 3Д через торрент https://d.radikal.ru/d12/2007/8c/a77bf456a9cf.png Скачать фильм Тролли. Мировой тур 3Д через торрент бесплантно в хорошем качестве Описание: Поп-тролли в шоке — оказывается, мир музыки гораздо больше, чем они думали. Рейвы, оупен-эйры, классические концерты и, конечно, ... 10 10 3
Торрент: Зарегистрирован [2020-08-02 08:29] · скачан: 19 раз
Статус: √ проверено
Размер: 8.29 GB
Как cкачать? Как скачать Тролли. Мировой тур 3Д через торрент | qTorrent

28-11-2019 20:33  

Отключить всю рекламу на сайте

    Дорогой пользователь! Огромная просьба, поблагодарите релизера, оцените раздачу и оставьте свои комментарий, если Вы скачали Тролли. Мировой тур 3Д через торрент бесплатно! Внесите свою лепту в развитие PiratBit!
    Комментировать посты могут только пользователи прошедшие не сложную регистрацию
    Показать сообщения:    

    Тролли. Мировой тур 3Д через торрент
    Скачать бесплатно Тролли. Мировой тур 3Д
    Тролли. Мировой тур 3Д скачать торрент
    Тролли. Мировой тур 3Д смотреть онлайн
    Cкачать фильм Тролли. Мировой тур 3Д бесплатно
    Тролли. Мировой тур 3Д скачать торрент в хорошем качестве
    Тролли. Мировой тур 3Д смотреть онлайн бесплатно в хорошем качестве


    Вы не можете начинать темы
    Вы не можете отвечать на сообщения
    Вы не можете редактировать свои сообщения
    Вы не можете удалять свои сообщения
    Вы не можете голосовать в опросах
    Вы не можете прикреплять файлы к сообщениям
    Вы можете скачивать файлы