Ссылка на приватное зеркало всего за 1$. Внимание количество ограничено!!!

iTunes

iTunes

iTunes

1

iTunes

iTunes

iTunes

WEBRip

iTunes

30
pack

$ от Little Big

ВАЖНО

!!Акция!!

Alien_RageХит недели

RePack

Resident Evil 21

ИГРА 18+

pack

RePack

jed

!!Акция!!

Alien_Rage

RePack

fifa19

RePack

Assassins Creed: Odyssey

RePack

NEED FOR SPEED™ PAYBACK

4 сезон

9 сезон

Бесстыжие 9 сезон

Все сериалы

все сериалы на PB.wtf

RePack

FAR CRY 5
  

Как продать наркотики онлайн (быстро) / How To Sell Drugs Online (Fast) / Сезон: 2 / Серии: 1-6 из 6 (Арни Фельдхузен, Ларс Монтаг) [2020, Драма, криминал, WEB-DL 1080p] [MVO] (TVShows) pb.wtf

Как продать наркотики онлайн через торрент pb.wtf

Раздают: 5 [ 703 KB/s ]
Размер: 8.1 GB | Добавлен: 6 д. назад | Торрент скачан:27 раз
Скачать  

02-08-2020 17:06 Как продать наркотики онлайн Скачать торрент  

Как продать наркотики онлайн (быстро) / How To Sell Drugs Online (Fast) Год выпуска: 2020
Страна: Германия
Жанр: Драма, криминал
Продолжительность: ~ 00:35:00

Перевод: Профессиональный (многоголосый закадровый) TVShows

Режиссёр: Арни Фельдхузен, Ларс Монтаг

В ролях: Максимилиан Мундт, Данило Камбер, Анна-Лена Кленке, Дамиан Хардунг, Леони Весселоу, Луна Баптист Шаллер, Бьярне Медел, Роланд Рибелинг, Жолина Амэели Тринкс, Ульрике Фолькертс

Описание: Мориц расстроен: его девушка ушла к школьному драгдилеру. Единственный способ ее вернуть — стать лучше конкурента. Вместе с другом Ленни парень разворачивает наркорынок невероятных масштабов — вот на что сподвигает любовь!
rating

Качество: WEB-DL 1080p
Контейнер: MKV
Видео: AVC, 1920*1080, 16:9, 25fps, ~4000 kbps
Аудио: Русский, AC3, 48kHz, 6ch, 448 kbps
Аудио 2: Немецкий, E-AC3, 48kHz, 6ch, 640 kbps
Субтитры: Английские, русские (Neflix)
Реклама: Отсутствует
General
Unique ID : 145547209719729115920569071658073773181 (0x6D7F5F79CA55837873FDFB98517AD47D)
Complete name : How to Sell Drugs Online (Fast) (S02E01) Think Different.mkv
Format : Matroska
Format version : Version 4
File size : 1.26 GiB
Duration : 35 min 36 s
Overall bit rate mode : Variable
Overall bit rate : 5 063 kb/s
Encoded date : UTC 2020-08-01 10:44:34
Writing application : mkvmerge v33.1.0 ('Primrose') 64-bit
Writing library : libebml v1.3.7 + libmatroska v1.5.0

Video
ID : 1
Format : AVC
Format/Info : Advanced Video Codec
Format profile : Main@L4
Format settings : CABAC / 3 Ref Frames
Format settings, CABAC : Yes
Format settings, Reference frames : 3 frames
Codec ID : V_MPEG4/ISO/AVC
Duration : 35 min 36 s
Bit rate mode : Variable
Bit rate : 4 020 kb/s
Maximum bit rate : 6 030 kb/s
Width : 1 920 pixels
Height : 1 080 pixels
Display aspect ratio : 16:9
Frame rate mode : Constant
Frame rate : 25.000 FPS
Color space : YUV
Chroma subsampling : 4:2:0
Bit depth : 8 bits
Scan type : Progressive
Bits/(Pixel*Frame) : 0.078
Stream size : 1 012 MiB (78%)
Writing library : x264 core 148 r2721 6d200cf
Encoding settings : cabac=1 / ref=3 / deblock=1:0:0 / analyse=0x1:0x111 / me=umh / subme=10 / psy=1 / psy_rd=1.00:0.00 / mixed_ref=1 / me_range=24 / chroma_me=1 / trellis=2 / 8x8dct=0 / cqm=0 / deadzone=21,11 / fast_pskip=1 / chroma_qp_offset=-2 / threads=6 / lookahead_threads=1 / sliced_threads=0 / nr=0 / decimate=1 / interlaced=0 / bluray_compat=0 / stitchable=1 / constrained_intra=0 / bframes=2 / b_pyramid=0 / b_adapt=2 / b_bias=0 / direct=3 / weightb=1 / open_gop=0 / weightp=2 / keyint=250 / keyint_min=25 / scenecut=0 / intra_refresh=0 / rc_lookahead=50 / rc=2pass / mbtree=1 / bitrate=4020 / ratetol=1.0 / qcomp=0.50 / qpmin=6 / qpmax=51 / qpstep=4 / cplxblur=20.0 / qblur=0.5 / vbv_maxrate=6030 / vbv_bufsize=8040 / nal_hrd=vbr / filler=0 / ip_ratio=1.40 / aq=1:1.00
Language : German
Default : Yes
Forced : No

Audio #1
ID : 2
Format : AC-3
Format/Info : Audio Coding 3
Commercial name : Dolby Digital
Codec ID : A_AC3
Duration : 35 min 36 s
Bit rate mode : Constant
Bit rate : 448 kb/s
Channel(s) : 6 channels
Channel layout : L R C LFE Ls Rs
Sampling rate : 48.0 kHz
Frame rate : 31.250 FPS (1536 SPF)
Compression mode : Lossy
Delay relative to video : 23 ms
Stream size : 114 MiB (9%)
Title : MVO TVShows
Language : Russian
Service kind : Complete Main
Default : Yes
Forced : No

Audio #2
ID : 3
Format : E-AC-3
Format/Info : Enhanced AC-3
Commercial name : Dolby Digital Plus
Codec ID : A_EAC3
Duration : 35 min 36 s
Bit rate mode : Constant
Bit rate : 640 kb/s
Channel(s) : 6 channels
Channel layout : L R C LFE Ls Rs
Sampling rate : 48.0 kHz
Frame rate : 31.250 FPS (1536 SPF)
Compression mode : Lossy
Stream size : 163 MiB (13%)
Language : German
Service kind : Complete Main
Default : No
Forced : No

Text #1
ID : 4
Format : UTF-8
Codec ID : S_TEXT/UTF8
Codec ID/Info : UTF-8 Plain Text
Duration : 34 min 7 s
Bit rate : 75 b/s
Count of elements : 532
Stream size : 18.8 KiB (0%)
Language : English
Default : No
Forced : No

Text #2
ID : 5
Format : UTF-8
Codec ID : S_TEXT/UTF8
Codec ID/Info : UTF-8 Plain Text
Duration : 34 min 23 s
Bit rate : 121 b/s
Count of elements : 589
Stream size : 30.6 KiB (0%)
Language : Russian
Default : No
Forced : No
скриншот  скриншот  скриншот  
pb.wtf



Скачать Как продать наркотики онлайн через торрент https://i110.fastpic.ru/big/2019/0611/ac/bf6eb3dc27f08b2d91f04d11dab5c2ac.jpg Скачать фильм Как продать наркотики онлайн через торрент бесплантно в хорошем качестве Описание: Мориц расстроен: его девушка ушла к школьному драгдилеру. Единственный способ ее вернуть — стать лучше конкурента. Вместе с ... 10 10 1
Торрент: Зарегистрирован [2020-08-02 17:06] · скачан: 27 раз
Статус: √ проверено
Размер: 8.1 GB
Как cкачать? Как скачать Как продать наркотики онлайн через торрент | qTorrent

% Раздел Тема Автор DL S | L
Зарубежные сериалы [ 5.42 GB ] Как продать наркотики онлайн / How To Sell Drugs Online / Сезон: 1 / Серии: 1-6 из 6 [2019 WEB-DL 1080p] [MVO] killermax2013 Скачать
10 | 1
Зарубежные сериалы [ 8.33 GB ] Как продать наркотики онлайн / How To Sell Drugs Online / Сезон: 1 / Серии: 1-6 из 6 [2019 WEB-DL 1080p] MVO [СВ Студия] bober100 Скачать
1 | 0

28-11-2019 20:33  

Отключить всю рекламу на сайте

    Дорогой пользователь! Огромная просьба, поблагодарите релизера, оцените раздачу и оставьте свои комментарий, если Вы скачали Как продать наркотики онлайн через торрент бесплатно! Внесите свою лепту в развитие PiratBit!
    Комментировать посты могут только пользователи прошедшие не сложную регистрацию
    Показать сообщения:    

    Как продать наркотики онлайн через торрент
    Скачать бесплатно Как продать наркотики онлайн
    Как продать наркотики онлайн скачать торрент
    Как продать наркотики онлайн смотреть онлайн
    Cкачать фильм Как продать наркотики онлайн бесплатно
    Как продать наркотики онлайн скачать торрент в хорошем качестве
    Как продать наркотики онлайн смотреть онлайн бесплатно в хорошем качестве


    Вы не можете начинать темы
    Вы не можете отвечать на сообщения
    Вы не можете редактировать свои сообщения
    Вы не можете удалять свои сообщения
    Вы не можете голосовать в опросах
    Вы не можете прикреплять файлы к сообщениям
    Вы можете скачивать файлы