2 сезон

iTunes

1 сезон

1

iTunes

iTunes

iTunes

1 сезон

RePack

30

ИГРА 18+

pack

ВАЖНО

!!Акция!!

Alien_RageХит недели

RePack

MK11
pack

Забери бонус

RePack

jed

!!Акция!!

Alien_Rage

RePack

fifa19

RePack

Assassins Creed: Odyssey

RePack

NEED FOR SPEED™ PAYBACK

4 сезон

9 сезон

Бесстыжие 9 сезон

Все сериалы

все сериалы на PB.wtf

RePack

FAR CRY 5
  

Было у отца два сына / Серии: 1-4 из 4 (Виктория Круглая) [2017, Мелодрама, WEB-DLRip] pb.wtf

Было у отца два сына через торрент pb.wtf

Раздают: 1 [ 0 KB/s ]
Размер: 2.46 GB | Добавлен: 2 мес. 28 д. назад | Торрент скачан:41 раз
Скачать  

03-08-2020 03:13 Было у отца два сына Скачать торрент  

Было у отца два сына
Год выпуска: 2017
Страна: Украина, Латвия
Выпущено: ART FORMS PRODUCTION, SIA (Латвийская Республика)
Жанр: Мелодрама
Продолжительность: ~ 00:47:50
Перевод: Не требуется
Субтитры: отсутствуют

Режиссер: Виктория Круглая



В ролях: Оксана Сташенко, Александр Гетманский, Виталий Салий, Дарья Легейда, Владимир Заец, Марина Дьяконенко, Наталия Васько, Фёдор Гуринец, Михаил Кукуюк, Игорь Иващенко, Юлия Амелькина, Станислав Флоренцев, Дмитрий Оскин, Анна Лебедева, Максим Боряк, Маргарита Лапина

Описание: У самого синего моря, в большом курортном городе, проживает влиятельная и очень состоятельная семья Бойцовых. Николай Бойцов – глава семейства и владелец большой сети гостиниц, вырастил двух сыновей: Антона и Виктора. Они двойняшки - родились в один день и в один час. Но еще никогда не было так, чтобы два брата были так не похожи друг на друга. Антон девушкам не нравится, и он давно махнул рукой на свою личную жизнь. Виктор купается в женском внимании и меняет девушек, как перчатки...

Качество: WEB-DLRip
Формат: AVI

Видео: XviD, ~ 1617 Кбит/с, 720x400, 25 кадр/с
Аудио: 48.0 kHz, AC3 Dolby Digital, 2/0 (L,R) ch, ~ 192 kbps
скриншот  скриншот  скриншот  скриншот  скриншот  

General
Complete name : C:01.Было у отца два сына.(2019).WEB-DLRip.by.Nicodem.Files-x.avi
Format : AVI
Format/Info : Audio Video Interleave
File size : 630 MiB
Duration : 48mn 27s
Overall bit rate : 1 819 Kbps
Writing application : VirtualDubMod 1.5.10.3 | www.virtualdub-fr.org || (build 2550/release)
Writing library : VirtualDubMod build 2550/release

Video
ID : 0
Format : MPEG-4 Visual
Format profile : Advanced Simple@L5
Format settings, BVOP : 1
Format settings, QPel : No
Format settings, GMC : No warppoints
Format settings, Matrix : Custom
Codec ID : XVID
Codec ID/Hint : XviD
Duration : 48mn 27s
Bit rate : 1 617 Kbps
Width : 720 pixels
Height : 400 pixels
Display aspect ratio : 16:9
Frame rate : 25.000 fps
Color space : YUV
Chroma subsampling : 4:2:0
Bit depth : 8 bits
Scan type : Progressive
Compression mode : Lossy
Bits/(Pixel*Frame) : 0.225
Stream size : 560 MiB (89%)
Writing library : XviD 73

Audio
ID : 1
Format : AC-3
Format/Info : Audio Coding 3
Mode extension : CM (complete main)
Codec ID : 2000
Duration : 48mn 27s
Bit rate mode : Constant
Bit rate : 192 Kbps
Channel(s) : 2 channels
Channel positions : Front: L R
Sampling rate : 48.0 KHz
Bit depth : 16 bits
Compression mode : Lossy
Stream size : 66.5 MiB (11%)
Alignment : Split accross interleaves
Interleave, duration : 40 ms (1.00 video frame)
Interleave, preload duration : 500 ms

pb.wtf



Скачать Было у отца два сына через торрент https://i112.fastpic.ru/big/2020/0803/c3/9205347ed804747522fc65a93cfbeac3.jpg Скачать фильм Было у отца два сына через торрент бесплантно в хорошем качестве Описание: У самого синего моря, в большом курортном городе, проживает влиятельная и очень состоятельная семья Бойцовых. Николай Бойцов – ... 9.3 10 3
Торрент: Зарегистрирован [2020-08-03 03:13] · скачан: 41 раз
Статус: √ проверено
Размер: 2.46 GB
Как cкачать? Как скачать Было у отца два сына через торрент | qTorrent

% Раздел Тема Автор DL S | L
Наши сериалы [ 7.16 GB ] Было у отца два сына / Серии: 1-4 из 4 [2017 Мело WEB-DL 1080p] bober100 Скачать
1 | 0
Наши сериалы [ 5.09 GB ] Было у отца два сына / Серии: 1-4 из 4 [2017 Мело WEB-DL 720p] bober100 Скачать
1 | 0

28-11-2019 20:33  

Отключить всю рекламу на сайте

    Дорогой пользователь! Огромная просьба, поблагодарите релизера, оцените раздачу и оставьте свои комментарий, если Вы скачали Было у отца два сына через торрент бесплатно! Внесите свою лепту в развитие PiratBit!
    Комментировать посты могут только пользователи прошедшие не сложную регистрацию
    Показать сообщения:    

    Было у отца два сына через торрент
    Скачать бесплатно Было у отца два сына
    Было у отца два сына скачать торрент
    Было у отца два сына смотреть онлайн
    Cкачать фильм Было у отца два сына бесплатно
    Было у отца два сына скачать торрент в хорошем качестве
    Было у отца два сына смотреть онлайн бесплатно в хорошем качестве


    Вы не можете начинать темы
    Вы не можете отвечать на сообщения
    Вы не можете редактировать свои сообщения
    Вы не можете удалять свои сообщения
    Вы не можете голосовать в опросах
    Вы не можете прикреплять файлы к сообщениям
    Вы можете скачивать файлы