2 сезон

iTunes

MVO

1

2 сезон

iTunes

iTunes

1 сезон

RePack

30

Новинка

ВАЖНО

ИГРА 18+

pack

RePack

MK11
pack

Легкие деньги

RePack

jed

RePack

fifa19

RePack

RDR2

RePack

NEED FOR SPEED™ PAYBACK

4 сезон

9 сезон

Бесстыжие 9 сезон

Все сериалы

все сериалы на PB.wtf

RePack

FAR CRY 5

Anonymous, добрый вечер, мы не успеваем собрать деньги на оплату серверов за декабрь и январь, помогите нам пожалуйста в это трудное время. В качестве благодарности мы отключим Вам всю рекламу на сайте (укажите свой ник в строку Ваше имя)!

×
  
Magnet ссылка

Ты - воплощение порока / Ты - отстой / You're The Worst / Сезон: 1-5 / Серии: 1-62 из 62 (Джордан Вот-Робертс) [2014-2019, мелодрама, комедия, WEB-DL 1080p] [MVO] (TVShows) pb.wtf

Ты - воплощение порока через торрент pb.wtf

Размер: 151.14 GB | Добавлен: 5 мес. 15 д. назад | Торрент скачан:8 раз
Скачать  

03-08-2020 09:49 Ты - воплощение порока Скачать торрент  

Ты - воплощение порока / Ты - отстой / You're The Worst Год выпуска: 2014-2019
Страна: США
Жанр: мелодрама, комедия
Продолжительность: 62x ~00:24:00
Перевод: Профессиональный (многоголосый закадровый) TVShows

Режиссёр: Джордан Вот-Робертс

В ролях: Крис Гир, Джинджер Гонзага, Ая Кэш, Кетер Донохью, Брэндон Смит, Кулиа Прескотт, Каллард Харрис, Джонни 5, Линн А. Фридман

Описание: История о том, как два совершенно порочных человека влюбляются и пытаются совершить невозможное – построить отношения.

rating

Сэмпл: http://multi-up.com/1265800

Качество: WEB-DL 1080p
Формат: MKV
Видео: MPEG4-AVC, 1920x1080, 23.976 fps, ~14000kbps
Аудио: Русский -AC3, 48kHz, 6ch, 448 kbps
Аудио 2: Английский - E-AC3, 48kHz, 6ch, 640 kbps
Субтитры: Английские

Реклама: Отсутствует
1. 1-1  17 Jul 14 Pilot
2. 1-2 24 Jul 14 Insouciance
3. 1-3 31 Jul 14 Keys Open Doors
4. 1-4 07 Aug 14 What Normal People Do
5. 1-5 14 Aug 14 Sunday Funday
6. 1-6 21 Aug 14 PTSD
7. 1-7 28 Aug 14 Equally Dead Inside
8. 1-8 04 Sep 14 Finish Your Milk
9. 1-9 11 Sep 14 Constant Horror and Bone-Deep Dissatisfaction
10. 1-10 18 Sep 14 Fists and Feet and Stuff
11. 2-1  09 Sep 15 The Sweater People
12. 2-2 16 Sep 15 Crevasses
13. 2-3 23 Sep 15 Born Dead
14. 2-4 30 Sep 15 All About That Paper
15. 2-5 07 Oct 15 We Can Do Better Than This
16. 2-6 14 Oct 15 Side Bitch
17. 2-7 21 Oct 15 There is Not Currently a Problem
18. 2-8 28 Oct 15 Spooky Sunday Funday
19. 2-9 04 Nov 15 LCD Soundsystem
20. 2-10 11 Nov 15 A Right Proper Story
21. 2-11 18 Nov 15 A Rapidly Mutating Virus
22. 2-12 02 Dec 15 Other Things You Could Be Doing
23. 2-13 09 Dec 15 The Heart is a Dumb Dumb (35 min)
24. 3-1  31 Aug 16 Try Real Hard (34 min)
25. 3-2 07 Sep 16 Fix Me, Dummy
26. 3-3 14 Sep 16 Bad News: Dude's Dead
27. 3-4 21 Sep 16 Men Get Strong
28. 3-5 28 Sep 16 Twenty-Two
29. 3-6 05 Oct 16 The Last Sunday Funday
30. 3-7 12 Oct 16 The Only Thing That Helps
31. 3-8 19 Oct 16 Genetically Inferior Beta Males
32. 3-9 26 Oct 16 The Seventh Layer
33. 3-10 02 Nov 16 Talking to Me, Talking to Me
34. 3-11 09 Nov 16 The Inherent, Unsullied Qualitative Value of Anything
35. 3-12 16 Nov 16 You Knew It Was a Snake
36. 3-13 16 Nov 16 No Longer Just Us (50 min)
37. 4-1  06 Sep 17 It's Been (60 min)
38. 4-2 13 Sep 17 Odysseus
39. 4-3 20 Sep 17 This is Just Marketing
40. 4-4 27 Sep 17 Fog of War, Bro
41. 4-5 04 Oct 17 There's Always a Back Door
42. 4-6 11 Oct 17 Not a Great Bet
43. 4-7 18 Oct 17 A Bunch of Hornballs
44. 4-8 25 Oct 17 Worldstar!
45. 4-9 01 Nov 17 Dad-Not-Dad
46. 4-10 08 Nov 17 From the Beginning, I Was Screwed
47. 4-11 15 Nov 17 Like People
48. 4-12 15 Nov 17 It's Always Been This Way
49. 5-1  09 Jan 19 The Intransigence of Love
50. 5-2 16 Jan 19 The Pin in My Grenade
51. 5-3 23 Jan 19 The One Thing We Don't Talk About
52. 5-4 30 Jan 19 What Money?
53. 5-5 06 Feb 19 A Very Good Boy
54. 5-6 13 Feb 19 This Brief Fermata
55. 5-7 20 Feb 19 Zero Eggplants
56. 5-8 27 Feb 19 The Pillars of Creation
57. 5-9 06 Mar 19 Bachelor/Bachelorette Party Sunday Funday
58. 5-10 13 Mar 19 Magical Thinking
59. 5-11 20 Mar 19 Four Goddamn More Days
60. 5-12 27 Mar 19 We Were Having Such a Nice Day
61. 5-13 03 Apr 19 Pancakes
General
Unique ID : 218445824987200219732830460372593332706 (0xA45722B3DBC3C1B0BEE577BF6946D1E2)
Complete name : You're the Worst (S01E01) Pilot.mkv
Format : Matroska
Format version : Version 4
File size : 2.70 GiB
Duration : 25 min 7 s
Overall bit rate mode : Variable
Overall bit rate : 15.4 Mb/s
Encoded date : UTC 2020-07-28 05:18:26
Writing application : mkvmerge v42.0.0 ('Overtime') 64-bit
Writing library : libebml v1.3.10 + libmatroska v1.5.2

Video
ID : 1
Format : AVC
Format/Info : Advanced Video Codec
Format profile : High@L4
Format settings : CABAC / 4 Ref Frames
Format settings, CABAC : Yes
Format settings, Reference frames : 4 frames
Codec ID : V_MPEG4/ISO/AVC
Duration : 25 min 7 s
Bit rate mode : Variable
Bit rate : 14.3 Mb/s
Maximum bit rate : 15.0 Mb/s
Width : 1 920 pixels
Height : 1 080 pixels
Display aspect ratio : 16:9
Frame rate mode : Constant
Frame rate : 23.976 (24000/1001) FPS
Color space : YUV
Chroma subsampling : 4:2:0
Bit depth : 8 bits
Scan type : Progressive
Bits/(Pixel*Frame) : 0.288
Stream size : 2.51 GiB (93%)
Language : English
Default : Yes
Forced : No
Color range : Limited
Color primaries : BT.709
Transfer characteristics : BT.709
Matrix coefficients : BT.709

Audio #1
ID : 2
Format : AC-3
Format/Info : Audio Coding 3
Commercial name : Dolby Digital
Codec ID : A_AC3
Duration : 25 min 7 s
Bit rate mode : Constant
Bit rate : 448 kb/s
Channel(s) : 6 channels
Channel layout : L R C LFE Ls Rs
Sampling rate : 48.0 kHz
Frame rate : 31.250 FPS (1536 SPF)
Compression mode : Lossy
Delay relative to video : 23 ms
Stream size : 80.5 MiB (3%)
Title : MVO TVShows
Language : Russian
Service kind : Complete Main
Default : Yes
Forced : No

Audio #2
ID : 3
Format : E-AC-3
Format/Info : Enhanced AC-3
Commercial name : Dolby Digital Plus
Codec ID : A_EAC3
Duration : 25 min 7 s
Bit rate mode : Constant
Bit rate : 640 kb/s
Channel(s) : 6 channels
Channel layout : L R C LFE Ls Rs
Sampling rate : 48.0 kHz
Frame rate : 31.250 FPS (1536 SPF)
Compression mode : Lossy
Stream size : 115 MiB (4%)
Language : English
Service kind : Complete Main
Default : No
Forced : No

Text
ID : 4
Format : UTF-8
Codec ID : S_TEXT/UTF8
Codec ID/Info : UTF-8 Plain Text
Duration : 24 min 55 s
Bit rate : 100 b/s
Count of elements : 853
Stream size : 18.3 KiB (0%)
Title : English (SDH)
Language : English
Default : No
Forced : No
скриншот  скриншот  скриншот  
pb.wtf



Скачать Ты - воплощение порока через торрент http://i65.fastpic.ru/big/2015/0911/c8/749860eecebcfa7f4a936968bebfbec8.jpg Скачать фильм Ты - воплощение порока через торрент бесплантно в хорошем качестве Описание: История о том, как два совершенно порочных человека влюбляются и пытаются совершить невозможное – построить отношения.Сэмпл: ... 9.8 10 4
Торрент: Зарегистрирован [2020-08-03 09:49] · скачан: 8 раз
Статус: √ проверено
Размер: 151.14 GB
Как cкачать? Как скачать Ты - воплощение порока через торрент | UTorrent

28-11-2019 20:33  

Отключить всю рекламу на сайте


    Дорогой пользователь! Огромная просьба, поблагодарите релизера, оцените раздачу и оставьте свои комментарий, если Вы скачали Ты - воплощение порока через торрент бесплатно! Внесите свою лепту в развитие PiratBit!
    Комментировать посты могут только пользователи прошедшие не сложную регистрацию
    Показать сообщения:    

    Ты - воплощение порока через торрент
    Скачать бесплатно Ты - воплощение порока
    Ты - воплощение порока скачать торрент
    Ты - воплощение порока смотреть онлайн
    Cкачать фильм Ты - воплощение порока бесплатно
    Ты - воплощение порока скачать торрент в хорошем качестве
    Ты - воплощение порока смотреть онлайн бесплатно в хорошем качестве


    Вы не можете начинать темы
    Вы не можете отвечать на сообщения
    Вы не можете редактировать свои сообщения
    Вы не можете удалять свои сообщения
    Вы не можете голосовать в опросах
    Вы не можете прикреплять файлы к сообщениям
    Вы можете скачивать файлы