Ссылка на приватное зеркало нашего сайта всего за 1$. Внимание количество ограничено!!!

2 сезон

iTunes

1 сезон

1

iTunes

iTunes

iTunes

1 сезон

RePack

30

ИГРА 18+

pack

ВАЖНО

!!Акция!!

Alien_RageХит недели

RePack

MK11
pack

Забери бонус

RePack

jed

!!Акция!!

Alien_Rage

RePack

fifa19

RePack

Assassins Creed: Odyssey

RePack

NEED FOR SPEED™ PAYBACK

4 сезон

9 сезон

Бесстыжие 9 сезон

Все сериалы

все сериалы на PB.wtf

RePack

FAR CRY 5
  

Ты только мой / Серии: 1-4 из 4 (Тарас Дударь) [2020, Мелодрама, WEB-DLRip] pb.wtf

Ты только мой через торрент pb.wtf

Размер: 2.29 GB | Добавлен: 2 мес. 16 д. назад | Торрент скачан:13 раз
Скачать  

04-08-2020 00:06 Ты только мой Скачать торрент  

Ты только мой Год выпуска: 2020
Страна: Украина
Выпущено: Mamas Film Production
Жанр: Мелодрама
Продолжительность: ~ 00:45:00
Перевод: Не требуется
Субтитры: отсутствуют

Режиссер: Тарас Дударь



В ролях: Людмила Загорская, Антон Батырев, Иван Тамашев, Ксения Мишина, Елена Колесниченко, Владислав Мамчур, Елизавета Козлова, Светлана Штанько, Константин Октябрьский, Илона Бойко, Игорь Портянко, Галина Корнеева, Владимир Ющенко (II), Екатерина Марченко, Анастасия Котляр

Описание: Татьяна и Михаил Кравчуки воспитывают приемного сына Льва, мальчик семье достался не простой - с сильным волевым характером и завидным упрямством. А подростковый возраст все только усугубил, и в семье назревает нешуточный конфликт. Это не единственная проблема у Кравчуков – из колонии выходит родная мать Льва, в планах которой вернуть себе сына...

Качество: WEB-DLRip
Формат: AVI

Видео: XviD, ~ 1614 Кбит/с, 720x400, 25 кадр/с
Аудио: 48.0 kHz, AC3 Dolby Digital, 2/0 (L,R) ch, ~ 192 kbps
скриншот  скриншот  скриншот  скриншот  скриншот  

General
Complete name: C:01.Ты только мой.(2020).WEB-DLRip.by.Nicodem.Files-x.avi
Format: AVI
Format/Info: Audio Video Interleave
File size: 585 MiB
Duration: 45mn 3s
Overall bit rate: 1 815 Kbps
Writing application: VirtualDubMod 1.5.10.3 | www.virtualdub-fr.org || (build 2550/release)
Writing library: VirtualDubMod build 2550/release

Video
ID: 0
Format: MPEG-4 Visual
Format profile: Advanced Simple@L5
Format settings, BVOP: 1
Format settings, QPel: No
Format settings, GMC: No warppoints
Format settings, Matrix: Custom
Codec ID: XVID
Codec ID/Hint: XviD
Duration: 45mn 3s
Bit rate: 1 614 Kbps
Width: 720 pixels
Height: 400 pixels
Display aspect ratio: 16:9
Frame rate: 25.000 fps
Color space: YUV
Chroma subsampling: 4:2:0
Bit depth: 8 bits
Scan type: Progressive
Compression mode: Lossy
Bits/(Pixel*Frame): 0.224
Stream size: 520 MiB (89%)
Writing library: XviD 73

Audio
ID: 1
Format: AC-3
Format/Info: Audio Coding 3
Mode extension: CM (complete main)
Codec ID: 2000
Duration: 45mn 3s
Bit rate mode: Constant
Bit rate: 192 Kbps
Channel(s): 2 channels
Channel positions: Front: L R
Sampling rate: 48.0 KHz
Bit depth: 16 bits
Compression mode: Lossy
Stream size: 61.9 MiB (11%)
Alignment: Split accross interleaves
Interleave, duration: 40 ms (1.00 video frame)
Interleave, preload duration: 500 ms

pb.wtf



Скачать Ты только мой через торрент https://i111.fastpic.ru/big/2020/0303/63/fcb5b9c2225d5fe75c062e6f20caf463.jpg Скачать фильм Ты только мой через торрент бесплантно в хорошем качестве Описание: Татьяна и Михаил Кравчуки воспитывают приемного сына Льва, мальчик семье достался не простой - с сильным волевым характером и ... 10 10 2
Торрент: Зарегистрирован [2020-08-04 00:06] · скачан: 13 раз
Статус: √ проверено
Размер: 2.29 GB
Как cкачать? Как скачать Ты только мой через торрент | qTorrent

% Раздел Тема Автор DL S | L
Наши сериалы [ 6.54 GB ] Ты только мой / Серии: 1-4 из 4 [2020 Мело WEB-DL 1080p] bober100 Скачать
1 | 0
Наши сериалы [ 4.64 GB ] Ты только мой / Серии: 1-4 из 4 [2020 Мело WEB-DL 720p] bober100 Скачать
1 | 0
Наши сериалы [ 2.25 GB ] Ты только мой / Серии: 1-4 из 4 [2020 Мело WEB-DLRip-AVC] bober100 Скачать
1 | 1

28-11-2019 20:33  

Отключить всю рекламу на сайте

    Дорогой пользователь! Огромная просьба, поблагодарите релизера, оцените раздачу и оставьте свои комментарий, если Вы скачали Ты только мой через торрент бесплатно! Внесите свою лепту в развитие PiratBit!
    Комментировать посты могут только пользователи прошедшие не сложную регистрацию
    Показать сообщения:    

    Ты только мой через торрент
    Скачать бесплатно Ты только мой
    Ты только мой скачать торрент
    Ты только мой смотреть онлайн
    Cкачать фильм Ты только мой бесплатно
    Ты только мой скачать торрент в хорошем качестве
    Ты только мой смотреть онлайн бесплатно в хорошем качестве


    Вы не можете начинать темы
    Вы не можете отвечать на сообщения
    Вы не можете редактировать свои сообщения
    Вы не можете удалять свои сообщения
    Вы не можете голосовать в опросах
    Вы не можете прикреплять файлы к сообщениям
    Вы можете скачивать файлы