2 сезон

iTunes

1 сезон

1

iTunes

iTunes

iTunes

1 сезон

RePack

30

ИГРА 18+

pack

ВАЖНО

!!Акция!!

Alien_RageХит недели

RePack

MK11
pack

Забери бонус

RePack

jed

!!Акция!!

Alien_Rage

RePack

fifa19

RePack

Assassins Creed: Odyssey

RePack

NEED FOR SPEED™ PAYBACK

4 сезон

9 сезон

Бесстыжие 9 сезон

Все сериалы

все сериалы на PB.wtf

RePack

FAR CRY 5
  

Ты только мой / Серии: 1-4 из 4 (Тарас Дударь) [2020, Мелодрама, WEB-DL 1080p] pb.wtf

Ты только мой через торрент pb.wtf

Размер: 6.54 GB | Добавлен: 2 мес. 27 д. назад | Торрент скачан:18 раз
Скачать  

04-08-2020 00:06 Ты только мой Скачать торрент  

Ты только мой Год выпуска: 2020
Страна: Украина
Выпущено: Mamas Film Production
Жанр: Мелодрама
Продолжительность: ~ 00:45:00
Перевод: Не требуется
Субтитры: отсутствуют

Режиссер: Тарас Дударь



В ролях: Людмила Загорская, Антон Батырев, Иван Тамашев, Ксения Мишина, Елена Колесниченко, Владислав Мамчур, Елизавета Козлова, Светлана Штанько, Константин Октябрьский, Илона Бойко, Игорь Портянко, Галина Корнеева, Владимир Ющенко (II), Екатерина Марченко, Анастасия Котляр

Описание: Татьяна и Михаил Кравчуки воспитывают приемного сына Льва, мальчик семье достался не простой - с сильным волевым характером и завидным упрямством. А подростковый возраст все только усугубил, и в семье назревает нешуточный конфликт. Это не единственная проблема у Кравчуков – из колонии выходит родная мать Льва, в планах которой вернуть себе сына...

Качество: WEB-DL 1080p
Формат: MKV

Видео: MPEG-4 AVC, ~ 5000 Кбит/с, 1920x1080, 25 кадр/с
Аудио: 48.0 kHz, AC3 Dolby Digital, 2/0 (L,R) ch, ~ 192 kbps
скриншот  скриншот  скриншот  скриншот  скриншот  

General
Unique ID : 151452746560687934210015688781617453160 (0x71F0BCEC004C4D04202AEFCBBA0C5868)
Complete name : C:01.Ты только мой.(2020).WEB-DL (1080p).by.Nicodem.Files-x.mkv
Format : Matroska
File size : 1.64 GiB
Duration : 45mn 3s
Overall bit rate : 5 204 Kbps
Writing application : Lavf56.36.100
Writing library : Lavf56.36.100

Video
ID : 1
Format : AVC
Format/Info : Advanced Video Codec
Format profile : High@L4.1
Format settings, CABAC : Yes
Format settings, ReFrames : 5 frames
Codec ID : V_MPEG4/ISO/AVC
Duration : 45mn 3s
Bit rate : 5 000 Kbps
Width : 1 920 pixels
Height : 1 080 pixels
Display aspect ratio : 16:9
Frame rate mode : Variable
Frame rate : 25.000 fps
Color space : YUV
Chroma subsampling : 4:2:0
Bit depth : 8 bits
Scan type : Progressive
Bits/(Pixel*Frame) : 0.096
Stream size : 1.54 GiB (94%)
Writing library : x264 core 148
Encoding settings : cabac=1 / ref=5 / deblock=1:0:0 / analyse=0x3:0x113 / me=hex / subme=8 / psy=1 / psy_rd=1.00:0.00 / mixed_ref=1 / me_range=16 / chroma_me=1 / trellis=2 / 8x8dct=1 / cqm=0 / deadzone=21,11 / fast_pskip=1 / chroma_qp_offset=-2 / threads=34 / lookahead_threads=5 / sliced_threads=0 / nr=0 / decimate=1 / interlaced=0 / bluray_compat=0 / constrained_intra=0 / bframes=3 / b_pyramid=2 / b_adapt=1 / b_bias=0 / direct=3 / weightb=1 / open_gop=0 / weightp=2 / keyint=250 / keyint_min=25 / scenecut=0 / intra_refresh=0 / rc_lookahead=50 / rc=abr / mbtree=1 / bitrate=5000 / ratetol=1.0 / qcomp=0.60 / qpmin=0 / qpmax=69 / qpstep=4 / ip_ratio=1.40 / aq=1:1.00
Language : English

Audio
ID : 2
Format : AC-3
Format/Info : Audio Coding 3
Mode extension : CM (complete main)
Codec ID : A_AC3
Duration : 45mn 3s
Bit rate mode : Constant
Bit rate : 192 Kbps
Channel(s) : 2 channels
Channel positions : Front: L R
Sampling rate : 44.1 KHz
Bit depth : 16 bits
Compression mode : Lossy
Delay relative to video : 1mn 5s
Stream size : 61.9 MiB (4%)
Language : English / un

pb.wtf



Скачать Ты только мой через торрент https://i111.fastpic.ru/big/2020/0303/63/fcb5b9c2225d5fe75c062e6f20caf463.jpg Скачать фильм Ты только мой через торрент бесплантно в хорошем качестве Описание: Татьяна и Михаил Кравчуки воспитывают приемного сына Льва, мальчик семье достался не простой - с сильным волевым характером и ... 10 10 3
Торрент: Зарегистрирован [2020-08-04 00:06] · скачан: 18 раз
Статус: √ проверено
Размер: 6.54 GB
Как cкачать? Как скачать Ты только мой через торрент | qTorrent

% Раздел Тема Автор DL S | L
Наши сериалы [ 4.64 GB ] Ты только мой / Серии: 1-4 из 4 [2020 Мело WEB-DL 720p] bober100 Скачать
1 | 0
Наши сериалы [ 2.25 GB ] Ты только мой / Серии: 1-4 из 4 [2020 Мело WEB-DLRip-AVC] bober100 Скачать
2 | 0
Наши сериалы [ 2.29 GB ] Ты только мой / Серии: 1-4 из 4 [2020 Мело WEB-DLRip] bober100 Скачать
1 | 0

28-11-2019 20:33  

Отключить всю рекламу на сайте

    Дорогой пользователь! Огромная просьба, поблагодарите релизера, оцените раздачу и оставьте свои комментарий, если Вы скачали Ты только мой через торрент бесплатно! Внесите свою лепту в развитие PiratBit!
    Комментировать посты могут только пользователи прошедшие не сложную регистрацию
    Показать сообщения:    

    Ты только мой через торрент
    Скачать бесплатно Ты только мой
    Ты только мой скачать торрент
    Ты только мой смотреть онлайн
    Cкачать фильм Ты только мой бесплатно
    Ты только мой скачать торрент в хорошем качестве
    Ты только мой смотреть онлайн бесплатно в хорошем качестве


    Вы не можете начинать темы
    Вы не можете отвечать на сообщения
    Вы не можете редактировать свои сообщения
    Вы не можете удалять свои сообщения
    Вы не можете голосовать в опросах
    Вы не можете прикреплять файлы к сообщениям
    Вы можете скачивать файлы