Ссылка на приватное зеркало нашего сайта всего за 1$. Внимание количество ограничено!!!

2 сезон

iTunes

1 сезон

1

2 сезон

2 сезон

iTunes

1 сезон

RePack

30

Ultimate

ВАЖНО

ИГРА 18+

pack

RePack

MK11
pack

Забери бонус

RePack

jed

!!Акция!!

Alien_Rage

RePack

fifa19

RePack

Assassins Creed: Odyssey

RePack

NEED FOR SPEED™ PAYBACK

4 сезон

9 сезон

Бесстыжие 9 сезон

Все сериалы

все сериалы на PB.wtf

RePack

FAR CRY 5
  

Спасатели Малибу: Новая волна / Malibu Rescue: The Next Wave (Сэвидж Стив Холланд) [2020, боевик, комедия, приключения, семейный, WEB-DL 1080p] [DUB] (Netflix) pb.wtf

Спасатели Малибу: Новая волна через торрент pb.wtf

Раздают: 1 [ 0 KB/s ]
Размер: 4.36 GB | Добавлен: 3 мес. 30 д. назад | Торрент скачан:167 раз
Скачать  

04-08-2020 16:40 Спасатели Малибу: Новая волна Скачать торрент  

Спасатели Малибу: Новая волна / Malibu Rescue: The Next Wave

Информация о фильме
Название: Спасатели Малибу: Новая волна
Оригинальное название: Malibu Rescue: The Next Wave
Год выхода: 2020
Жанр: Боевик, комедия, приключения, семейный
Страна: США
Студия: Pacific Bay Entertainment, Netflix
Продолжительность: 01:10:55
Перевод: Дублированный | Netflix
Субтитры: Русские (Forced, full), английские, испанские

Режиссер: Сэвидж Стив Холланд

В ролях: Джереми Ховард, Эбби Доннелли, Бреанна Иде, Джеки Р. Джейкобсон, Рикардо Уртадо, Генри Кинги, Киррили Бергер, ДжиТи Нил, Элла Гросс, Лорен Гоу

О фильме: Внимание всей планеты обращено на пляжи Малибу в Южной Калифорнии, где происходит международный чемпионат спасателей среди юниоров. Тайлеру, Дилану, Эрику, Лиззи и Джине приходится представлять свою страну в самом экстремальном в мире соревновании спасателей.



Качество: WEB-DL 1080p
Формат: MKV
Видео: MPEG-4 AVC, 1920x1080, 7150 Кbit/s, 23.976 fps
Аудио #01: 48 kHz, E-AC3, 5.1, 640 Kbps | Дублированный | RUS |
Аудио #02: 48 kHz, AC3, 5.1, 640 Kbps | Дублированный | RUS |
Аудио #03: 48 kHz, E-AC3, 5.1, 640 Kbps | Оригинал | ENG |
General

Unique ID : 19043596197455335334959343013234439784 (0xE53A9C88F4F9CE3D2BAF128A86F7668)

Complete name : E:Video111Malibu.Rescue.the.Next.Wave.2020.WEB-DL.1080p.seleZen.mkv

Format : Matroska

Format version : Version 4

File size : 4.36 GiB

Duration : 1 h 10 min

Overall bit rate mode : Variable

Overall bit rate : 8 798 kb/s

Movie name : Malibu Rescue the Next Wave 2020 from селезень

Encoded date : UTC 2020-08-04 15:47:35

Writing application : mkvmerge v40.0.0 ('Old Town Road + Pony') 64-bit

Writing library : libebml v1.3.9 + libmatroska v1.5.2

Video

ID : 1

Format : AVC

Format/Info : Advanced Video Codec

Format profile : Main@L4

Format settings : CABAC / 3 Ref Frames

Format settings, CABAC : Yes

Format settings, Reference frames : 3 frames

Codec ID : V_MPEG4/ISO/AVC

Duration : 1 h 10 min

Bit rate mode : Variable

Bit rate : 7 150 kb/s

Maximum bit rate : 10.7 Mb/s

Width : 1 920 pixels

Height : 1 080 pixels

Display aspect ratio : 16:9

Frame rate mode : Constant

Frame rate : 23.976 (24000/1001) FPS

Color space : YUV

Chroma subsampling : 4:2:0

Bit depth : 8 bits

Scan type : Progressive

Bits/(Pixel*Frame) : 0.144

Stream size : 3.41 GiB (78%)

Writing library : x264 core 148 r2717 0d2410d

Encoding settings : cabac=1 / ref=3 / deblock=1:0:0 / analyse=0x1:0x111 / me=umh / subme=10 / psy=1 / psy_rd=1.00:0.00 / mixed_ref=1 / me_range=24 / chroma_me=1 / trellis=2 / 8x8dct=0 / cqm=0 / deadzone=21,11 / fast_pskip=1 / chroma_qp_offset=-2 / threads=6 / lookahead_threads=1 / sliced_threads=0 / nr=0 / decimate=1 / interlaced=0 / bluray_compat=0 / stitchable=1 / constrained_intra=0 / bframes=2 / b_pyramid=0 / b_adapt=2 / b_bias=0 / direct=3 / weightb=1 / open_gop=0 / weightp=2 / keyint=250 / keyint_min=23 / scenecut=0 / intra_refresh=0 / rc_lookahead=48 / rc=2pass / mbtree=1 / bitrate=7150 / ratetol=1.0 / qcomp=0.50 / qpmin=6 / qpmax=51 / qpstep=4 / cplxblur=20.0 / qblur=0.5 / vbv_maxrate=10725 / vbv_bufsize=14300 / nal_hrd=vbr / filler=0 / ip_ratio=1.40 / aq=1:1.00

Language : English

Default : Yes

Forced : No

Audio #1

ID : 2

Format : E-AC-3

Format/Info : Enhanced AC-3

Commercial name : Dolby Digital Plus

Codec ID : A_EAC3

Duration : 1 h 10 min

Bit rate mode : Constant

Bit rate : 640 kb/s

Channel(s) : 6 channels

Channel layout : L R C LFE Ls Rs

Sampling rate : 48.0 kHz

Frame rate : 31.250 FPS (1536 SPF)

Compression mode : Lossy

Stream size : 325 MiB (7%)

Title : Dub

Language : Russian

Service kind : Complete Main

Default : Yes

Forced : Yes

Audio #2

ID : 3

Format : AC-3

Format/Info : Audio Coding 3

Commercial name : Dolby Digital

Codec ID : A_AC3

Duration : 1 h 10 min

Bit rate mode : Constant

Bit rate : 640 kb/s

Channel(s) : 6 channels

Channel layout : L R C LFE Ls Rs

Sampling rate : 48.0 kHz

Frame rate : 31.250 FPS (1536 SPF)

Compression mode : Lossy

Stream size : 325 MiB (7%)

Title : Dub

Language : Russian

Service kind : Complete Main

Default : No

Forced : No

Audio #3

ID : 4

Format : E-AC-3

Format/Info : Enhanced AC-3

Commercial name : Dolby Digital Plus

Codec ID : A_EAC3

Duration : 1 h 10 min

Bit rate mode : Constant

Bit rate : 640 kb/s

Channel(s) : 6 channels

Channel layout : L R C LFE Ls Rs

Sampling rate : 48.0 kHz

Frame rate : 31.250 FPS (1536 SPF)

Compression mode : Lossy

Stream size : 325 MiB (7%)

Title : Original

Language : English

Service kind : Complete Main

Default : No

Forced : No

Text #1

ID : 5

Format : UTF-8

Codec ID : S_TEXT/UTF8

Codec ID/Info : UTF-8 Plain Text

Duration : 1 h 7 min

Bit rate : 2 b/s

Count of elements : 33

Stream size : 1.38 KiB (0%)

Title : Forced

Language : Russian

Default : Yes

Forced : Yes

Text #2

ID : 6

Format : UTF-8

Codec ID : S_TEXT/UTF8

Codec ID/Info : UTF-8 Plain Text

Duration : 1 h 7 min

Bit rate : 104 b/s

Count of elements : 1118

Stream size : 52.2 KiB (0%)

Title : Full

Language : Russian

Default : No

Forced : No

Text #3

ID : 7

Format : UTF-8

Codec ID : S_TEXT/UTF8

Codec ID/Info : UTF-8 Plain Text

Duration : 7 s 341 ms

Bit rate : 33 b/s

Count of elements : 4

Stream size : 31.0 Bytes (0%)

Title : Forced

Language : English

Default : No

Forced : No

Text #4

ID : 8

Format : UTF-8

Codec ID : S_TEXT/UTF8

Codec ID/Info : UTF-8 Plain Text

Duration : 1 h 7 min

Bit rate : 89 b/s

Count of elements : 1418

Stream size : 44.4 KiB (0%)

Title : SDH

Language : English

Default : No

Forced : No

Text #5

ID : 9

Format : UTF-8

Codec ID : S_TEXT/UTF8

Codec ID/Info : UTF-8 Plain Text

Duration : 1 h 7 min

Bit rate : 66 b/s

Count of elements : 1112

Stream size : 33.3 KiB (0%)

Language : Spanish

Default : No

Forced : No
скриншот  скриншот  скриншот  
pb.wtf



Скачать Спасатели Малибу: Новая волна через торрент https://b.radikal.ru/b17/2008/46/b9149bdf6a9d.png Скачать фильм Спасатели Малибу: Новая волна через торрент бесплантно в хорошем качестве О фильме: Внимание всей планеты обращено на пляжи Малибу в Южной Калифорнии, где происходит международный чемпионат спасателей среди ... 10 10 6
Торрент: Зарегистрирован [2020-08-04 16:40] · скачан: 167 раз
Статус: √ проверено
Размер: 4.36 GB
Как cкачать? Как скачать Спасатели Малибу: Новая волна через торрент | qTorrent

% Раздел Тема Автор DL S | L
Фильмы 2019-2020 [DVDrip, WEB-DLRip, HDrip] (DUB, MVO) [ 744 MB ] Спасатели Малибу: Новая волна / Malibu Rescue: The Next Wave [2020 WEB-DLRip-AVC] [Netflix] от wolf1245 & MediaBit Lithuania Скачать
1 | 0
Фильмы 2019-2020 [DVDrip, WEB-DLRip, HDrip] (DUB, MVO) [ 1.37 GB ] Спасатели Малибу: Новая волна / Malibu Rescue: The Next Wave [2020 WEB-DLRip] DUB [Netflix] bober100 Скачать
4 | 0

28-11-2019 20:33  

Отключить всю рекламу на сайте

08-08-2020 15:41 Спасатели Малибу: Новая волна Скачать торрент  

Днище полноеpb.wtf



    Дорогой пользователь! Огромная просьба, поблагодарите релизера, оцените раздачу и оставьте свои комментарий, если Вы скачали Спасатели Малибу: Новая волна через торрент бесплатно! Внесите свою лепту в развитие PiratBit!
    Комментировать посты могут только пользователи прошедшие не сложную регистрацию
    Показать сообщения:    

    Спасатели Малибу: Новая волна через торрент
    Скачать бесплатно Спасатели Малибу: Новая волна
    Спасатели Малибу: Новая волна скачать торрент
    Спасатели Малибу: Новая волна смотреть онлайн
    Cкачать фильм Спасатели Малибу: Новая волна бесплатно
    Спасатели Малибу: Новая волна скачать торрент в хорошем качестве
    Спасатели Малибу: Новая волна смотреть онлайн бесплатно в хорошем качестве


    Вы не можете начинать темы
    Вы не можете отвечать на сообщения
    Вы не можете редактировать свои сообщения
    Вы не можете удалять свои сообщения
    Вы не можете голосовать в опросах
    Вы не можете прикреплять файлы к сообщениям
    Вы можете скачивать файлы