Ссылка на приватное зеркало нашего сайта всего за 1$. Внимание количество ограничено!!!

2 сезон

iTunes

1 сезон

1

2 сезон

2 сезон

iTunes

1 сезон

RePack

30

Ultimate

ВАЖНО

ИГРА 18+

pack

RePack

MK11
pack

Забери бонус

RePack

jed

!!Акция!!

Alien_Rage

RePack

fifa19

RePack

Assassins Creed: Odyssey

RePack

NEED FOR SPEED™ PAYBACK

4 сезон

9 сезон

Бесстыжие 9 сезон

Все сериалы

все сериалы на PB.wtf

RePack

FAR CRY 5
  

Луна над Турином / La luna su Torino (Давиде Феррарио) [2013, Комедия, WEB-DL 1080p] DVO [iTunes] pb.wtf

Луна над Турином через торрент pb.wtf

Размер: 3.6 GB | Добавлен: 3 мес. 23 д. назад | Торрент скачан:32 раза
Скачать  

04-08-2020 16:55 Луна над Турином Скачать торрент  

Луна над Турином | La luna su Torino
Год выпуска: 2013
Страна: Италия
Выпущено: Rossofuoco, Fargo Film, Film Commission Torino-Piemonte
Жанр: Комедия
Продолжительность: 01:33:42
Перевод: Профессиональный (двухголосый) | iTunes
Субтитры: отсутствуют

Режиссер: Давиде Феррарио

rating

В ролях: Уолтер Леонарди, Мануэла Пароди, Эудженио Франческини, Дариа Паскаль Аттолини, Альдо Оттобрино, Бенедетта Перего, Франко Майно, Джулия Одори, Франко Оливеро, Джованни Биссака, Стефано Скерини, Диего Казале, Джейн Беллами

Описание: В Турине, городе на 45-й параллели, которая равноудалена от Северного полюса и от экватора, живет Уго. Будучи подростком, он получил хорошее наследство, но теперь деньги на исходе и ему приходится сдавать в аренду часть своей виллы на вершине живописного холма. Его жильцы — Мария, в которую влюблен Уго, и студент Дарио, который еле сводит концы с концами. У каждого из них свои проблемы, но вот подходит срок ипотеки и все трое рискуют оказаться на улице…

Качество: WEB-DL 1080p
Формат: MKV

Видео: MPEG-4 AVC, 5120 Kb/s, 1920x820, 24.000 FPS
Аудио: 48 kHz, AC3 Dolby Digital, 3/2 (L,C,R,l,r) + LFE ch, ~384 kbps | RUS |
скриншот  скриншот  скриншот  скриншот  

Complete name: La.luna.su.Torino.2013.1080p.WEB-DL.ELEKTRI4KA.UNIONGANG.mkv
Format: Matroska
Format version: Version 4 / Version 2
File size: 3.60 GiB
Duration: 1 h 33 min
Overall bit rate: 5 493 kb/s
Movie name: .ELEKTRI4KA.UNIONGANG.
Encoded date: UTC 2020-08-04 05:55:01
Writing application: mkvmerge v8.3.0 ('Over the Horizon') 64bit
Writing library: libebml v1.3.1 + libmatroska v1.4.2

Video
ID: 1
Format: AVC
Format/Info: Advanced Video Codec
Format profile: High@L4
Format settings, CABAC: Yes
Format settings, Reference frames: 4 frames
Codec ID: V_MPEG4/ISO/AVC
Duration: 1 h 33 min
Bit rate: 5 120 kb/s
Width: 1 920 pixels
Height: 820 pixels
Display aspect ratio: 2.35:1
Frame rate mode: Constant
Frame rate: 24.000 FPS
Color space: YUV
Chroma subsampling: 4:2:0
Bit depth: 8 bits
Scan type: Progressive
Bits/(Pixel*Frame): 0.136
Stream size: 3.34 GiB (93%)
Writing library: x264 core 148
Encoding settings: cabac=1 / ref=3 / deblock=1:0:0 / analyse=0x3:0x113 / me=hex / subme=7 / psy=1 / psy_rd=1.00:0.00 / mixed_ref=1 / me_range=16 / chroma_me=1 / trellis=1 / 8x8dct=1 / cqm=0 / deadzone=21, 11 / fast_pskip=1 / chroma_qp_offset=-2 / threads=26 / lookahead_threads=4 / sliced_threads=0 / nr=0 / decimate=1 / interlaced=0 / bluray_compat=0 / constrained_intra=0 / bframes=6 / b_pyramid=2 / b_adapt=1 / b_bias=0 / direct=1 / weightb=1 / open_gop=0 / weightp=2 / keyint=48 / keyint_min=25 / scenecut=0 / intra_refresh=0 / rc_lookahead=40 / rc=2pass / mbtree=1 / bitrate=5120 / ratetol=1.0 / qcomp=0.60 / qpmin=0 / qpmax=69 / qpstep=4 / cplxblur=20.0 / qblur=0.5 / vbv_maxrate=7680 / vbv_bufsize=20480 / nal_hrd=none / filler=0 / ip_ratio=1.40 / aq=1:1.00
Default: Yes
Forced: No

Audio
ID: 2
Format: AC-3
Format/Info: Audio Coding 3
Mode extension: CM (complete main)
Format settings, Endianness: Big
Codec ID: A_AC3
Duration: 1 h 33 min
Bit rate mode: Constant
Bit rate: 384 kb/s
Channel(s): 6 channels
Channel positions: Front: L C R, Side: L R, LFE
Sampling rate: 48.0 kHz
Frame rate: 31.250 FPS (1536 spf)
Bit depth: 16 bits
Compression mode: Lossy
Stream size: 257 MiB (7%)
Title: iTunes
Language: Russian
Default: Yes
Forced: No

Menu
00:00:00.000: it:01
00:07:10.416: it:02
00:14:32.749: it:03
00:20:19.165: it:04
00:27:57.206: it:05
00:34:30.497: it:06
00:41:21.913: it:07
00:46:40.704: it:08
00:50:58.120: it:09
00:58:38.578: it:10
01:04:03.786: it:11
01:10:23.036: it:12
01:16:39.911: it:13
01:23:54.911: it:14

pb.wtf



Скачать Луна над Турином через торрент https://i6.imageban.ru/out/2020/08/04/8eb0a79689bb56af4ae151cf8af13b9a.png Скачать фильм Луна над Турином через торрент бесплантно в хорошем качестве Описание: В Турине, городе на 45-й параллели, которая равноудалена от Северного полюса и от экватора, живет Уго. Будучи подростком, он ... 10 10 4
Торрент: Зарегистрирован [2020-08-04 16:55] · скачан: 32 раз
Статус: √ проверено
Размер: 3.6 GB
Как cкачать? Как скачать Луна над Турином через торрент | qTorrent

% Раздел Тема Автор DL S | L
Фильмы 2013 [DVDrip, WEB-DLRip, HDrip] [ 746 MB ] Луна над Турином / La luna su Torino [2013 WEB-DLRip] DVO bober100 Скачать
1 | 0
Фильмы 2013 [DVDrip, WEB-DLRip, HDrip] [ 1.46 GB ] Луна над Турином / La luna su Torino [2013 WEB-DLRip] DVO bober100 Скачать
1 | 0

28-11-2019 20:33  

Отключить всю рекламу на сайте

    Дорогой пользователь! Огромная просьба, поблагодарите релизера, оцените раздачу и оставьте свои комментарий, если Вы скачали Луна над Турином через торрент бесплатно! Внесите свою лепту в развитие PiratBit!
    Комментировать посты могут только пользователи прошедшие не сложную регистрацию
    Показать сообщения:    

    Луна над Турином через торрент
    Скачать бесплатно Луна над Турином
    Луна над Турином скачать торрент
    Луна над Турином смотреть онлайн
    Cкачать фильм Луна над Турином бесплатно
    Луна над Турином скачать торрент в хорошем качестве
    Луна над Турином смотреть онлайн бесплатно в хорошем качестве


    Вы не можете начинать темы
    Вы не можете отвечать на сообщения
    Вы не можете редактировать свои сообщения
    Вы не можете удалять свои сообщения
    Вы не можете голосовать в опросах
    Вы не можете прикреплять файлы к сообщениям
    Вы можете скачивать файлы