Ссылка на приватное зеркало нашего сайта всего за 1$. Внимание количество ограничено!!!

2 сезон

iTunes

1 сезон

1

iTunes

iTunes

iTunes

1 сезон

RePack

30

ИГРА 18+

pack

ВАЖНО

!!Акция!!

Alien_RageХит недели

RePack

MK11
pack

Забери бонус

RePack

jed

!!Акция!!

Alien_Rage

RePack

fifa19

RePack

Assassins Creed: Odyssey

RePack

NEED FOR SPEED™ PAYBACK

4 сезон

9 сезон

Бесстыжие 9 сезон

Все сериалы

все сериалы на PB.wtf

RePack

FAR CRY 5
  

Урфин Джюс возвращается (Федор Дмитриев) [2019, мультфильм, полнометражный, WEB-DLRip-AVC] [RUS] [iTunes] от wolf1245 & MediaBit pb.wtf

Урфин Джюс возвращается через торрент pb.wtf

Раздают: 1 [ 0 KB/s ]
Размер: 743 MB | Добавлен: 2 мес. 17 д. назад | Торрент скачан:54 раза
Скачать  

08-08-2020 10:28 Урфин Джюс возвращается Скачать торрент  


Урфин Джюс возвращается
Информация о фильме:
Название: Урфин Джюс возвращается
Год выхода: 2019
Жанр: мультфильм, полнометражный
Режиссер: Федор Дмитриев

В ролях: Константин Хабенский, Екатерина Гороховская, Александр Быковский, Дмитрий Высоцкий (II), Дмитрий Дюжев, Андрей Лёвин, Юлия Рудина, Мария Цветкова-Овсянникова, Максим Сергеев, Валерий Соловьёв

Описание: Элли и ее верный пес Тотошка снова оказываются в Волшебной стране в самое подходящее время. Влacть в Изумрудном городе опять пытается захватить коварный Урфин Джюс, который хоть и потерял армию деревянных солдат, но не отказался от своей вредной привычки - портить всем жизнь. В руках Урфина теперь волшебная книга колдуньи Гингемы, которая исполняет любое желание ее хозяина, а значит, Страшила Мудрый, Храбрый Лев и Железный Дровосек в опасности. Элли, Тотошка и их новый приятель Тим решают помочь жителям Волшебной страны. Тем более, Тиму нравится Элли, а что не сделаешь ради любви? Например, глупость. Но ошибки совершает каждый, а вот исправлять их умеют немногие.Любить их всех.



Страна: Россия
Студия: Кинокомпания CTB, Анимационная студия Мельница
Продолжительность: 01:13:18
Перевод: Оригинал - iTunes



Информация о файле:
Кодек: AVC
Формат: MKV
Качество: WEB-DLRip-AVC
Видео: MPEG-4 AVC, 736x414 (16:9), 25,000 кадров/сек, 1 321 Кбит/сек, 0.173
Аудио RU: AAC-HE, 2 ch, 48 kHz, 96 kbps
Субтитры: Нет

|


Общее
Уникальный идентификатор : 21538449599873113044147446380162250782 (0x1034278D93198E3376687CF6C3CCF81E)
Полное имя : D:uTorrentUrfin.Dzhyus.vozvraschaetsya.2019.WEB-DLRip-AVC_wolf1245_MediaBit.mkv
Формат : Matroska
Версия формата : Version 4
Размер файла : 743 Мбайт
Продолжительность : 1 ч. 13 м.
Общий поток : 1 417 Кбит/сек
Название фильма : Урфин Джюс возвращается (2019) WEB-DLRip-AVC_wolf1245_MediaBit
Дата кодирования : UTC 2020-08-08 10:13:09
Программа кодирования : mkvmerge v25.0.0 ('Prog Noir') 64-bit
Библиотека кодирования : libebml v1.3.6 + libmatroska v1.4.9
Обложка : Yes
Attachments : Ccover.png

Видео
Идентификатор : 1
Формат : AVC
Формат/Информация : Advanced Video Codec
Профиль формата : High@L4.1
Настройки формата : CABAC / 12 Ref Frames
Параметр CABAC формата : Да
Параметр RefFrames формата : 12 кадров
Идентификатор кодека : V_MPEG4/ISO/AVC
Продолжительность : 1 ч. 13 м.
Битрейт : 1 321 Кбит/сек
Ширина : 736 пикселей
Высота : 414 пикселей
Соотношение сторон : 16:9
Режим частоты кадров : Постоянный
Частота кадров : 25,000 кадров/сек
Цветовое пространство : YUV
Субдискретизация насыщенности : 4:2:0
Битовая глубина : 8 бит
Тип развёртки : Прогрессивная
Бит/(Пиксели*Кадры) : 0.173
Размер потока : 691 Мбайт (93%)
Заголовок : wolf1245_MediaBit
Библиотека кодирования : x264 core 157 r2958 57baac4
Настройки программы : cabac=1 / ref=12 / deblock=1:-3:-3 / analyse=0x3:0x133 / me=umh / subme=11 / psy=1 / psy_rd=1.00:0.15 / mixed_ref=1 / me_range=48 / chroma_me=1 / trellis=2 / 8x8dct=1 / cqm=0 / deadzone=21,11 / fast_pskip=0 / chroma_qp_offset=-3 / threads=10 / lookahead_threads=2 / sliced_threads=0 / nr=0 / decimate=0 / interlaced=0 / bluray_compat=0 / constrained_intra=0 / bframes=12 / b_pyramid=2 / b_adapt=2 / b_bias=0 / direct=3 / weightb=1 / open_gop=0 / weightp=2 / keyint=250 / keyint_min=25 / scenecut=40 / intra_refresh=0 / rc=2pass / mbtree=0 / bitrate=1321 / ratetol=1.0 / qcomp=0.60 / qpmin=0 / qpmax=69 / qpstep=4 / cplxblur=20.0 / qblur=0.5 / ip_ratio=1.40 / pb_ratio=1.30 / aq=1:1.00
Язык : English
Default : Да
Forced : Нет
Цветовой диапазон : Limited
Основные цвета : BT.709
Характеристики трансфера : BT.709
Коэффициенты матрицы : BT.709

Аудио
Идентификатор : 2
Формат : AAC LC SBR
Формат/Информация : Advanced Audio Codec Low Complexity with Spectral Band Replication
Коммерческое название : HE-AAC
Настройки формата : Implicit
Идентификатор кодека : A_AAC-2
Продолжительность : 1 ч. 13 м.
Битрейт : 96,0 Кбит/сек
Каналы : 2 канала
Channel layout : L R
Частота : 48,0 КГц
Частота кадров : 23,438 кадра/сек (2048 SPF)
Метод сжатия : С потерями
Размер потока : 50,3 Мбайт (7%)
Заголовок : Оригинал | iTunes
Язык : Russian
Default : Да
Forced : Нет

Меню
00:00:00.000 : :Глава 1
00:08:20.800 : :Глава 2
00:16:56.440 : :Глава 3
00:25:12.960 : :Глава 4
00:33:57.320 : :Глава 5
00:42:14.440 : :Глава 6
00:50:30.120 : :Глава 7
00:58:41.840 : :Глава 8
01:06:31.560 : :Глава 9
Рип от: &
pb.wtf



Скачать Урфин Джюс возвращается через торрент https://i112.fastpic.ru/big/2020/0807/b6/12749134660f4540135b9b92581af7b6.png Скачать фильм Урфин Джюс возвращается через торрент бесплантно в хорошем качестве Описание: Элли и ее верный пес Тотошка снова оказываются в Волшебной стране в самое подходящее время. Влacть в Изумрудном городе опять ... 9.8 10 5
Торрент: Зарегистрирован [2020-08-08 10:28] · скачан: 54 раз
Статус: √ проверено
Размер: 743 MB
Как cкачать? Как скачать Урфин Джюс возвращается через торрент | qTorrent

28-11-2019 20:33  

Отключить всю рекламу на сайте

    Дорогой пользователь! Огромная просьба, поблагодарите релизера, оцените раздачу и оставьте свои комментарий, если Вы скачали Урфин Джюс возвращается через торрент бесплатно! Внесите свою лепту в развитие PiratBit!
    Комментировать посты могут только пользователи прошедшие не сложную регистрацию
    Показать сообщения:    

    Урфин Джюс возвращается через торрент
    Скачать бесплатно Урфин Джюс возвращается
    Урфин Джюс возвращается скачать торрент
    Урфин Джюс возвращается смотреть онлайн
    Cкачать фильм Урфин Джюс возвращается бесплатно
    Урфин Джюс возвращается скачать торрент в хорошем качестве
    Урфин Джюс возвращается смотреть онлайн бесплатно в хорошем качестве


    Вы не можете начинать темы
    Вы не можете отвечать на сообщения
    Вы не можете редактировать свои сообщения
    Вы не можете удалять свои сообщения
    Вы не можете голосовать в опросах
    Вы не можете прикреплять файлы к сообщениям
    Вы можете скачивать файлы