Ссылка на приватное зеркало нашего сайта всего за 1$. Внимание количество ограничено!!!

2 сезон

iTunes

1 сезон

1

iTunes

iTunes

iTunes

1 сезон

RePack

30

ИГРА 18+

pack

ВАЖНО

!!Акция!!

Alien_RageХит недели

RePack

MK11
pack

Забери бонус

RePack

jed

!!Акция!!

Alien_Rage

RePack

fifa19

RePack

Assassins Creed: Odyssey

RePack

NEED FOR SPEED™ PAYBACK

4 сезон

9 сезон

Бесстыжие 9 сезон

Все сериалы

все сериалы на PB.wtf

RePack

FAR CRY 5
  

Надежда / Сезон: 1 / Серии: 1-16 из 16 (Елена Хазанова) [2020, Драма, криминал, боевик, WEBRip, (Версия 18+)] pb.wtf

Надежда через торрент pb.wtf

Раздают: 3 [ 0 KB/s ]
Размер: 4.36 GB | Добавлен: 2 мес. 17 д. назад | Торрент скачан:78 раз
Скачать  

08-08-2020 16:03 Надежда Скачать торрент  

Надежда
Год выпуска: 2020
Страна: Россия
Студия: START STUDIO, СУПЕР продакшн, Киностудия "Yellow, Black and White"
Жанр: Драма, криминал, боевик
Продолжительность: ~ 00:25:00
Перевод: Не требуется
Субтитры: отсутствуют

Режиссер: Елена Хазанова



В ролях: Виктория Исакова, Александр Кузьмин (II), Вероника Корниенко, Ася Громова, Алексей Морозов, Алексей Гуськов, Юлия Мельникова, Алексей Гришин, Алексей Мотов, Тимофей Кресло, Юлия Ауг, Евгений Фадин, Мария Голицына, Елена Ветрова, Андрей Дерьков, Андрей Бобров, Даниил Осокин, Александр Недорезов, Кирилл Ермичёв, Виктория Тарасова, Иван Бурлачко, Юрий Анпилогов, Павел Шумский, Андрей Нагорнов, Эльмира Мирэль, Олег Каменщиков, Олег Савостюк (II), Андрей Стоянов, Валерий Жуков, Олег Бойко, Сергей Горбачёв (II), Савва Гусев, Лилия Кочкарева, Екатерина Лисовая, Юрий Гумиров, Евгений Джураев, Алексей Жиров, Михаил Панюков, Иван Прилль

Описание: Надежда – на первый взгляд обычная москвичка. Любящий муж-музыкант, дочь – задиристый подросток, работа – стюардесса в частной авиации. Вот только вместо полетов на бизнес-джетах Надежда выполняет задания гораздо более опасные: она – хитроумный спецагент и безжалостный киллер. Надя беспрекословно выполняет все заказы своего руководителя, когда-то вытащившего ее, совсем юную, из тюрьмы. Но Надежда устала вести двойную жизнь и, похоже, готовит собственную спецоперацию.

Качество: WEBRip
Формат: AVI

Видео: XviD build 73, 720x400 (16:9), 25.000 fps, ~ 1350 Kbps (~ 0.187 bit/pixel)
Аудио: 48.0 kHz, MP3, 2/0 ch, 192 kbps
скриншот  скриншот  скриншот  скриншот  скриншот  

General
Complete name: D:\Razdachi\Nadezhda.2020.WEBRip.GeneralFilm\E02.Nadezhda.avi
Format: AVI
Format/Info: Audio Video Interleave
File size: 279 MiB
Duration: 25 min 10 s
Overall bit rate: 1 550 kb/s
Writing application: VirtualDubMod 1.5.10.3 | www.virtualdub-fr.org || (build 2550/release)
Writing library: VirtualDubMod build 2550/release

Video
ID: 0
Format: MPEG-4 Visual
Format profile: Advanced Simple@L5
Format settings: BVOP1 / Custom Matrix
Format settings, BVOP: 1
Format settings, QPel: No
Format settings, GMC: No warppoints
Format settings, Matrix: Custom
Codec ID: XVID
Codec ID/Hint: XviD
Duration: 25 min 10 s
Bit rate: 1 348 kb/s
Width: 720 pixels
Height: 400 pixels
Display aspect ratio: 16:9
Frame rate: 25.000 FPS
Color space: YUV
Chroma subsampling: 4:2:0
Bit depth: 8 bits
Scan type: Progressive
Compression mode: Lossy
Bits/(Pixel*Frame): 0.187
Stream size: 243 MiB (87%)
Writing library: XviD 73

Audio
ID: 1
Format: MPEG Audio
Format version: Version 1
Format profile: Layer 3
Codec ID: 55
Codec ID/Hint: MP3
Duration: 25 min 10 s
Bit rate mode: Constant
Bit rate: 192 kb/s
Channel(s): 2 channels
Sampling rate: 48.0 kHz
Frame rate: 41.667 FPS (1152 SPF)
Compression mode: Lossy
Stream size: 34.6 MiB (12%)
Alignment: Aligned on interleaves
Interleave, duration: 40 ms (1.00 video frame)
Interleave, preload duratio: 504 ms
Writing library: LAME3.99r
Encoding settings: -m s -V 4 -q 2 -lowpass 18.6 -b 192

pb.wtf



Скачать Надежда через торрент https://i112.fastpic.ru/big/2020/0618/34/6a732c21c1af5b943abc4c040cde9934.jpg Скачать фильм Надежда через торрент бесплантно в хорошем качестве Описание: Надежда – на первый взгляд обычная москвичка. Любящий муж-музыкант, дочь – задиристый подросток, работа – стюардесса в частной ... 10 10 5
Торрент: Зарегистрирован [2020-08-08 16:03] · скачан: 78 раз
Статус: √ проверено
Размер: 4.36 GB
Как cкачать? Как скачать Надежда через торрент | qTorrent

% Раздел Тема Автор DL S | L
Наши сериалы [ 20.71 GB ] Надежда / Сезон: 1 / Серии: 1-16 из 16 [2020 WEBRip 1080p ] bober100 Скачать
2 | 1
Наши сериалы [ 5.56 GB ] Надежда / Сезон: 1 / Серии: 1-16 из 16 [2020 WEBRip-AVC ] bober100 Скачать
3 | 0
Наши сериалы [ 5.47 GB ] Надежда / Сезон: 1 / Серии: 1-16 из 16 [2020 WEBRip ] bober100 Скачать
6 | 0
Наши сериалы [ 11.45 GB ] Надежда / Сезон: 1 / Серии: 1-16 из 16 [2020 WEBRip 720p ] bober100 Скачать
1 | 0
Зарубежные сериалы [ 16.2 GB ] В надежде на спасение / Saving Hope / Сезон: 5 / Серии: 1-18 из из 18 [2016 WEBRip 720p] [MVO] killermax2013 Скачать
1 | 0
Зарубежные сериалы [ 20.85 GB ] В надежде на спасение / Saving Hope / Сезон: 4 / Серии: 1-18 из из 18 [2015-2016 WEBRip 720p] [MVO] killermax2013 Скачать
1 | 0
Наши сериалы [ 8.09 GB ] Я ему верю! /Сезон: 1 /Серии: 16 из 16 [2012 IPTVRip ] -=Cherry=- Скачать
1 | 0

28-11-2019 20:33  

Отключить всю рекламу на сайте

    Дорогой пользователь! Огромная просьба, поблагодарите релизера, оцените раздачу и оставьте свои комментарий, если Вы скачали Надежда через торрент бесплатно! Внесите свою лепту в развитие PiratBit!
    Комментировать посты могут только пользователи прошедшие не сложную регистрацию
    Показать сообщения:    

    Надежда через торрент
    Скачать бесплатно Надежда
    Надежда скачать торрент
    Надежда смотреть онлайн
    Cкачать фильм Надежда бесплатно
    Надежда скачать торрент в хорошем качестве
    Надежда смотреть онлайн бесплатно в хорошем качестве


    Вы не можете начинать темы
    Вы не можете отвечать на сообщения
    Вы не можете редактировать свои сообщения
    Вы не можете удалять свои сообщения
    Вы не можете голосовать в опросах
    Вы не можете прикреплять файлы к сообщениям
    Вы можете скачивать файлы