Ссылка на приватное зеркало нашего сайта всего за 1$. Внимание количество ограничено!!!

2 сезон

iTunes

1 сезон

1

2 сезон

2 сезон

iTunes

1 сезон

RePack

30

Ultimate

ВАЖНО

ИГРА 18+

pack

RePack

MK11
pack

Забери бонус

RePack

jed

!!Акция!!

Alien_Rage

RePack

fifa19

RePack

Assassins Creed: Odyssey

RePack

NEED FOR SPEED™ PAYBACK

4 сезон

9 сезон

Бесстыжие 9 сезон

Все сериалы

все сериалы на PB.wtf

RePack

FAR CRY 5
  

Давай разведемся! (Анна Пармас) [2019, комедия, WEB-DLRip-AVC] [RUS] [iTunes] от wolf1245 & MediaBit pb.wtf

Давай разведемся! через торрент pb.wtf

Раздают: 1 [ 0 KB/s ]
Размер: 743 MB | Добавлен: 3 мес. 22 д. назад | Торрент скачан:87 раз
Скачать  

08-08-2020 20:35 Давай разведемся! Скачать торрент  


Давай разведемся!
Информация о фильме:
Название: Давай разведемся!
Год выхода: 2019
Жанр: комедия
Режиссер:Анна Пармас

В ролях: Анна Михалкова, Антон Филипенко, Светлана Камынина, Максим Лагашкин, Федор Лавров, Анна Рыцарева, Надежда Маркина, Сергей Рост, Дарья Румянцева, Майя Скородумова

Описание: Успешный врач Маша поглощена работой и не сразу замечает, что от нее уходит муж. Жизнь переворачивается вверх дном: на работе аврал, дети требуют постоянного внимания, а привыкшая побеждать Маша не готова уступить любимого мужа красотке фитнес-тренеру. Маша призывает на помощь полный боевой арсенал, включая потусторонние силы. Но новая жизнь открывает новые возможности…

rating

Страна: Россия
Студия: Кинокомпания CTB
Продолжительность: 01:32:15
Перевод: Оригинал - iTunes



Информация о файле:
Кодек: AVC
Формат: MKV
Качество: WEB-DLRip-AVC
Видео: MPEG-4 AVC, 744x418 (16:9), 25,000 кадров/сек, 1 031 Кбит/сек, 0.133
Аудио RU: AAC-HE, 2 ch, 48 kHz, 96 kbps
Субтитры: Нет
Чаптеры: Да

|
Общее
Уникальный идентификатор : 238508935309726524344253165114217105510 (0xB36F2669C9A609B32A7C0D737A4E8866)
Полное имя : D:uTorrentDavaib razvedemsya.2019.WEB-DLRip-AVC_wolf1245_MediaBit.mkv
Формат : Matroska
Версия формата : Version 4
Размер файла : 743 Мбайт
Продолжительность : 1 ч. 32 м.
Общий поток : 1 126 Кбит/сек
Название фильма : Давай разведемся! (2019) from_wolf1245_MediaBit
Дата кодирования : UTC 2020-08-08 20:22:12
Программа кодирования : mkvmerge v25.0.0 ('Prog Noir') 64-bit
Библиотека кодирования : libebml v1.3.6 + libmatroska v1.4.9
Обложка : Yes
Attachments : cover
Видео
Идентификатор : 1
Формат : AVC
Формат/Информация : Advanced Video Codec
Профиль формата : High@L4.1
Настройки формата : CABAC / 12 Ref Frames
Параметр CABAC формата : Да
Параметр RefFrames формата : 12 кадров
Идентификатор кодека : V_MPEG4/ISO/AVC
Продолжительность : 1 ч. 32 м.
Битрейт : 1 031 Кбит/сек
Ширина : 744 пикселя
Высота : 418 пикселей
Соотношение сторон : 16:9
Режим частоты кадров : Постоянный
Частота кадров : 25,000 кадров/сек
Цветовое пространство : YUV
Субдискретизация насыщенности : 4:2:0
Битовая глубина : 8 бит
Тип развёртки : Прогрессивная
Бит/(Пиксели*Кадры) : 0.133
Размер потока : 678 Мбайт (91%)
Заголовок : wolf1245_MediaBit
Библиотека кодирования : x264 core 157 r2958 57baac4
Настройки программы : cabac=1 / ref=12 / deblock=1:-3:-3 / analyse=0x3:0x133 / me=umh / subme=11 / psy=1 / psy_rd=1.00:0.15 / mixed_ref=1 / me_range=48 / chroma_me=1 / trellis=2 / 8x8dct=1 / cqm=0 / deadzone=21,11 / fast_pskip=0 / chroma_qp_offset=-3 / threads=10 / lookahead_threads=2 / sliced_threads=0 / nr=0 / decimate=0 / interlaced=0 / bluray_compat=0 / constrained_intra=0 / bframes=12 / b_pyramid=2 / b_adapt=2 / b_bias=0 / direct=3 / weightb=1 / open_gop=0 / weightp=2 / keyint=250 / keyint_min=25 / scenecut=40 / intra_refresh=0 / rc=2pass / mbtree=0 / bitrate=1031 / ratetol=1.0 / qcomp=0.60 / qpmin=0 / qpmax=69 / qpstep=4 / cplxblur=20.0 / qblur=0.5 / ip_ratio=1.40 / pb_ratio=1.30 / aq=1:1.00
Язык : Оригинал
Default : Да
Forced : Нет
Цветовой диапазон : Limited
Основные цвета : BT.709
Характеристики трансфера : BT.709
Коэффициенты матрицы : BT.709

Аудио
Идентификатор : 2
Формат : AAC LC SBR
Формат/Информация : Advanced Audio Codec Low Complexity with Spectral Band Replication
Коммерческое название : HE-AAC
Настройки формата : Implicit
Идентификатор кодека : A_AAC-2
Продолжительность : 1 ч. 32 м.
Битрейт : 96,0 Кбит/сек
Каналы : 2 канала
Channel layout : L R
Частота : 48,0 КГц
Частота кадров : 23,438 кадра/сек (2048 SPF)
Метод сжатия : С потерями
Размер потока : 63,3 Мбайт (9%)
Заголовок : ORIGINAL | iTunes
Язык : Russian
Default : Да
Forced : Нет

Меню
00:00:00.000 : :Глава 1
00:06:24.880 : :Глава 2
00:12:25.440 : :Глава 3
00:19:10.280 : :Глава 4
00:25:42.240 : :Глава 5
00:33:15.880 : :Глава 6
00:43:32.440 : :Глава 7
00:53:15.960 : :Глава 8
00:59:32.360 : :Глава 9
01:04:27.760 : :Глава 10
01:12:36.840 : :Глава 11
01:18:34.840 : :Глава 12
01:25:10.640 : :Глава 13
Рип от: &
pb.wtf



Скачать Давай разведемся! через торрент https://d.radikal.ru/d01/2008/26/15799dadbb44.png Скачать фильм Давай разведемся! через торрент бесплантно в хорошем качестве Описание: Успешный врач Маша поглощена работой и не сразу замечает, что от нее уходит муж. Жизнь переворачивается вверх дном: на работе ... 10 10 4
Торрент: Зарегистрирован [2020-08-08 20:35] · скачан: 87 раз
Статус: √ проверено
Размер: 743 MB
Как cкачать? Как скачать Давай разведемся! через торрент | qTorrent

28-11-2019 20:33  

Отключить всю рекламу на сайте

    Дорогой пользователь! Огромная просьба, поблагодарите релизера, оцените раздачу и оставьте свои комментарий, если Вы скачали Давай разведемся! через торрент бесплатно! Внесите свою лепту в развитие PiratBit!
    Комментировать посты могут только пользователи прошедшие не сложную регистрацию
    Показать сообщения:    

    Давай разведемся! через торрент
    Скачать бесплатно Давай разведемся!
    Давай разведемся! скачать торрент
    Давай разведемся! смотреть онлайн
    Cкачать фильм Давай разведемся! бесплатно
    Давай разведемся! скачать торрент в хорошем качестве
    Давай разведемся! смотреть онлайн бесплатно в хорошем качестве


    Вы не можете начинать темы
    Вы не можете отвечать на сообщения
    Вы не можете редактировать свои сообщения
    Вы не можете удалять свои сообщения
    Вы не можете голосовать в опросах
    Вы не можете прикреплять файлы к сообщениям
    Вы можете скачивать файлы