Ссылка на приватное зеркало нашего сайта всего за 1$. Внимание количество ограничено!!!

2 сезон

iTunes

1 сезон

1

2 сезон

2 сезон

iTunes

1 сезон

RePack

30

Ultimate

ВАЖНО

ИГРА 18+

pack

RePack

MK11
pack

Забери бонус

RePack

jed

!!Акция!!

Alien_Rage

RePack

fifa19

RePack

Assassins Creed: Odyssey

RePack

NEED FOR SPEED™ PAYBACK

4 сезон

9 сезон

Бесстыжие 9 сезон

Все сериалы

все сериалы на PB.wtf

RePack

FAR CRY 5
  

В ожидании варваров / Waiting for the Barbarians (Сиро Герра) [2019, Драма, WEB-DL 1080p] [AMAZON Version] DUB [iTunes] +MVO [Mallorn Studio] pb.wtf

В ожидании варваров через торрент pb.wtf

Раздают: 7 [ 0 KB/s ]
Размер: 7.09 GB | Добавлен: 3 мес. 10 д. назад | Торрент скачан:269 раз
Скачать  

09-08-2020 17:48 В ожидании варваров Скачать торрент  

В ожидании варваров | Waiting for the Barbarians
Год выпуска: 2019
Страна: США, Италия
Студия: Iervolino Entertainment, Ithaca Pictures
Жанр: Драма
Продолжительность: 01:53:38
Перевод:
Дублированное | iTunes
Любительский (многоголосый) | Mallorn Studio
Субтитры: Russian (Forced), English

Режиссер: Сиро Герра

rating

В ролях: Марк Райлэнс, Джонни Депп, Роберт Паттинсон, Гана Баярсайкан, Грета Скакки, Давид Денсик, Сэм Рид, Гарри Меллинг, Билл Милнер, Далхсурен Гурсэд

Описание: В отдаленный южный город на границе неназванной Империи приезжает суровый полковник Джолл вместе со своими солдатами. Ему поручено пресечь малейшие попытки восстания коренных жителей пустыни, именуемых «варварами». Полковник берется за дело основательно и жестоко. Расследуя смутные слухи о готовящемся бунте, он общается с плененными туземцами только на языке насилия. Свидетелем пыток и расправ становится местный чиновник – обходительный и добродушный магистрат города, не видящий в коренном населении никакой угрозы. Сблизившись с одной из замученных пленниц, магистрат находит в себе силы выступить против имперской карательной машины...

Качество: WEB-DL 1080p | AMAZON Version
Формат: MKV

Видео: MPEG-4 AVC, 7265 Кбит/с, 1920x800, 23.976 кадр/с
Аудио #1 Russian: 48 kHz, AC3 Dolby Digital, 3/2 (L, C, R, l, r) + LFE ch, ~384 Kbps | DUB | iTunes
Аудио #2 Russian: 48 kHz, AC3 Dolby Digital, 3/2 (L, C, R, l, r) + LFE ch, ~640 Kbps | MVO | Mallorn Studio
Аудио #3 English: 48 kHz, AC3 Dolby Digital, 3/2 (L, C, R, l, r) + LFE ch, ~640 Kbps | Original
скриншот  скриншот  скриншот  скриншот  скриншот  

Complete name: V.ozhidanii.varvarov.2019.AMZN.WEB-DL.1080p.ELEKTRI4KA.UNIONGANG.mkv
Format: Matroska
Format version: Version 4 / Version 2
File size: 7.09 GiB
Duration: 1 h 53 min
Overall bit rate: 8 927 kb/s
Movie name: .ELEKTRI4KA.UNIONGANG.
Encoded date: UTC 2020-08-14 19:18:05
Writing application: mkvmerge v8.3.0 ('Over the Horizon') 64bit
Writing library: libebml v1.3.1 + libmatroska v1.4.2

Video
ID: 1
Format: AVC
Format/Info: Advanced Video Codec
Format profile: High@L4
Format settings, CABAC: Yes
Format settings, Reference frames: 4 frames
Codec ID: V_MPEG4/ISO/AVC
Duration: 1 h 53 min
Bit rate mode: Constant
Bit rate: 7 265 kb/s
Nominal bit rate: 10 000 kb/s
Width: 1 920 pixels
Height: 800 pixels
Display aspect ratio: 2.40:1
Frame rate mode: Constant
Frame rate: 23.976 (24000/1001) FPS
Color space: YUV
Chroma subsampling: 4:2:0
Bit depth: 8 bits
Scan type: Progressive
Bits/(Pixel*Frame): 0.197
Stream size: 5.77 GiB (81%)
Title: .ELEKTRI4KA.UNIONGANG.
Language: English
Default: Yes
Forced: No
Color range: Limited
Color primaries: BT.709
Transfer characteristics: BT.709
Matrix coefficients: BT.709

Audio #1
ID: 2
Format: AC-3
Format/Info: Audio Coding 3
Mode extension: CM (complete main)
Format settings, Endianness: Big
Codec ID: A_AC3
Duration: 1 h 53 min
Bit rate mode: Constant
Bit rate: 384 kb/s
Channel(s): 6 channels
Channel positions: Front: L C R, Side: L R, LFE
Sampling rate: 48.0 kHz
Frame rate: 31.250 FPS (1536 spf)
Bit depth: 16 bits
Compression mode: Lossy
Stream size: 312 MiB (4%)
Title: iTunes
Language: Russian
Default: Yes
Forced: Yes

Audio #2
ID: 3
Format: AC-3
Format/Info: Audio Coding 3
Mode extension: CM (complete main)
Format settings, Endianness: Big
Codec ID: A_AC3
Duration: 1 h 53 min
Bit rate mode: Constant
Bit rate: 640 kb/s
Channel(s): 6 channels
Channel positions: Front: L C R, Side: L R, LFE
Sampling rate: 48.0 kHz
Frame rate: 31.250 FPS (1536 spf)
Bit depth: 16 bits
Compression mode: Lossy
Stream size: 520 MiB (7%)
Title: MVO [Mallorn] Plague.Studios
Language: Russian
Default: No
Forced: No

Audio #3
ID: 4
Format: AC-3
Format/Info: Audio Coding 3
Mode extension: CM (complete main)
Format settings, Endianness: Big
Codec ID: A_AC3
Duration: 1 h 53 min
Bit rate mode: Constant
Bit rate: 640 kb/s
Channel(s): 6 channels
Channel positions: Front: L C R, Side: L R, LFE
Sampling rate: 48.0 kHz
Frame rate: 31.250 FPS (1536 spf)
Bit depth: 16 bits
Compression mode: Lossy
Stream size: 520 MiB (7%)
Title: Original
Language: English
Default: No
Forced: No

Text #1
ID: 5
Format: UTF-8
Codec ID: S_TEXT/UTF8
Codec ID/Info: UTF-8 Plain Text
Duration: 1 h 32 min
Bit rate: 0 b/s
Count of elements: 4
Stream size: 111 Bytes (0%)
Title: Forced
Language: Russian
Default: Yes
Forced: No

Text #2
ID: 6
Format: UTF-8
Codec ID: S_TEXT/UTF8
Codec ID/Info: UTF-8 Plain Text
Duration: 1 h 52 min
Bit rate: 31 b/s
Count of elements: 1037
Stream size: 25.6 KiB (0%)
Title: SDH
Language: English
Default: No
Forced: No

pb.wtf



Скачать В ожидании варваров через торрент https://i6.imageban.ru/out/2020/08/14/a355aa6bac22d3d51494400f35d07f6c.png Скачать фильм В ожидании варваров через торрент бесплантно в хорошем качестве Описание: В отдаленный южный город на границе неназванной Империи приезжает суровый полковник Джолл вместе со своими солдатами. Ему ... 9.8 10 13
Торрент: Зарегистрирован [2020-08-15 02:53] · скачан: 269 раз
Статус: √ проверено
Размер: 7.09 GB
Как cкачать? Как скачать В ожидании варваров через торрент | qTorrent

% Раздел Тема Автор DL S | L
Фильмы 2019-2020 [DVDrip, WEB-DLRip, HDrip] (DUB, MVO) [ 2.13 GB ] В ожидании варваров / Waiting for the Barbarians [2019 BDRip] - Twi7ter Скачать
32 | 1
Фильмы 2019-2020 [DVDrip, WEB-DLRip, HDrip] (DUB, MVO) [ 1.41 GB ] В ожидании варваров / Waiting for the Barbarians [2019 BDRip] - Twi7ter Скачать
26 | 1
Фильмы [HD 720p, 1080p] (Хороший звук DUB, MVO) [ 14.14 GB ] В ожидании варваров / Waiting for the Barbarians [2019 BDRip 1080p] bober100 Скачать
1 | 0
Фильмы 2019-2020 [DVDrip, WEB-DLRip, HDrip] (DUB, MVO) [ 1.46 GB ] В ожидании варваров / Waiting for the Barbarians [2019 BDRip] bober100 Скачать
6 | 0
Фильмы 2019-2020 [DVDrip, WEB-DLRip, HDrip] (DUB, MVO) [ 2.41 GB ] В ожидании варваров / Waiting for the Barbarians [2019 BDRip-AVC] от wolf1245 & MediaBit Lithuania Скачать
6 | 0
Фильмы [HD 720p, 1080p] (Хороший звук DUB, MVO) [ 4.07 GB ] В ожидании варваров / Waiting for the Barbarians [2019 BDRip 720p] bober100 Скачать
3 | 0
Фильмы (Blu-ray, BD-Remux, HDDVD) [ 29.37 GB ] В ожидании варваров / Waiting for the Barbarians [2019 BD Remux 1080p] bober100 Скачать
3 | 0

28-11-2019 20:33  

Отключить всю рекламу на сайте

    Дорогой пользователь! Огромная просьба, поблагодарите релизера, оцените раздачу и оставьте свои комментарий, если Вы скачали В ожидании варваров через торрент бесплатно! Внесите свою лепту в развитие PiratBit!
    Комментировать посты могут только пользователи прошедшие не сложную регистрацию
    Показать сообщения:    

    В ожидании варваров через торрент
    Скачать бесплатно В ожидании варваров
    В ожидании варваров скачать торрент
    В ожидании варваров смотреть онлайн
    Cкачать фильм В ожидании варваров бесплатно
    В ожидании варваров скачать торрент в хорошем качестве
    В ожидании варваров смотреть онлайн бесплатно в хорошем качестве


    Вы не можете начинать темы
    Вы не можете отвечать на сообщения
    Вы не можете редактировать свои сообщения
    Вы не можете удалять свои сообщения
    Вы не можете голосовать в опросах
    Вы не можете прикреплять файлы к сообщениям
    Вы можете скачивать файлы