Ссылка на приватное зеркало нашего сайта всего за 1$. Внимание количество ограничено!!!

2 сезон

iTunes

1 сезон

1

iTunes

iTunes

iTunes

1 сезон

RePack

30

ИГРА 18+

pack

ВАЖНО

!!Акция!!

Alien_RageХит недели

RePack

MK11
pack

Забери бонус

RePack

jed

!!Акция!!

Alien_Rage

RePack

fifa19

RePack

Assassins Creed: Odyssey

RePack

NEED FOR SPEED™ PAYBACK

4 сезон

9 сезон

Бесстыжие 9 сезон

Все сериалы

все сериалы на PB.wtf

RePack

FAR CRY 5
  

Сториз / Сезон: 1 / Серии: 1-13 из ??? (Александр Потапов) [2020, Комедия, скетчком, WEB-DLRip] pb.wtf

Сториз через торрент pb.wtf

Раздают: 3 [ 0 KB/s ] Качают: 1 [ 0 KB/s ]
Размер: 3.74 GB | Добавлен: 1 мес. 11 д. назад | Торрент скачан:31 раз
Скачать  

10-08-2020 18:44 Сториз Скачать торрент  

Сториз
Год выпуска: 2020
Страна: Россия
Студия: Art Pictures Vision, Goose Goose Films
Жанр: Комедия, скетчком
Продолжительность: ~ 00:25:00
Перевод: Не требуется
Субтитры: отсутствуют

Режиссер: Александр Потапов

В ролях: Юлия Михалкова, Антон Лирник, Игорь Чехов, Олег Верещагин, Дмитрий Колчин, Ольга Кузьмина, Валерия Шкирандо, Даниил Вахрушев

Описание: Скетчком про жизнь героев самых разных интересов и статусов. Сумасшедшая экоактивистка, находчивый алкоголик, судья с приговором за слишком долгое аудиосообщение, блогер-бабушка и малышка-коуч, московские фифы, назойливая бывшая, врач с идеальным почерком и другие герои покорят сердца телезрителей.

Качество: WEB-DLRip
Формат: AVI

Видео: XviD, ~ 1600 Кбит/с, 720x400, 25 кадр/с
Аудио: 48.0 kHz, AC3 Dolby Digital, 2/0 (L,R) ch, ~ 192 kbps
скриншот  скриншот  скриншот  скриншот  скриншот  

General
Complete name: H:\fiiles x\Сториз..2020.WEB-DLRip.Files-x\01. Сториз.2020.WEB-DLRip.Files-x.avi
Format: AVI
Format/Info: Audio Video Interleave
File size: 296 MiB
Duration: 23mn 3s
Overall bit rate: 1 798 Kbps
Writing application: VirtualDubMod 1.5.10.3 | www.virtualdub-fr.org || (build 2550/release)
Writing library: VirtualDubMod build 2550/release

Video
ID: 0
Format: MPEG-4 Visual
Format profile: Advanced Simple@L5
Format settings, BVOP: 1
Format settings, QPel: No
Format settings, GMC: No warppoints
Format settings, Matrix: Custom
Codec ID: XVID
Codec ID/Hint: XviD
Duration: 23mn 3s
Bit rate: 1 596 Kbps
Width: 720 pixels
Height: 400 pixels
Display aspect ratio: 16:9
Frame rate: 25.000 fps
Color space: YUV
Chroma subsampling: 4:2:0
Bit depth: 8 bits
Scan type: Progressive
Compression mode: Lossy
Bits/(Pixel*Frame): 0.222
Stream size: 263 MiB (89%)
Writing library: XviD 73

Audio
ID: 1
Format: AC-3
Format/Info: Audio Coding 3
Mode extension: CM (complete main)
Codec ID: 2000
Duration: 23mn 3s
Bit rate mode: Constant
Bit rate: 192 Kbps
Channel(s): 2 channels
Channel positions: Front: L R
Sampling rate: 48.0 KHz
Bit depth: 16 bits
Compression mode: Lossy
Stream size: 31.7 MiB (11%)
Alignment: Split accross interleaves
Interleave, duration: 40 ms (1.00 video frame)
Interleave, preload duration: 500 ms

Внимание! Раздача ведётся путём добавления новых серий; при каждом добавлении создаётся новый торрент.
Чтобы начать докачку новой серии, пользователям необходимо сделать следующее:
1. Остановить скачивание;
2. Удалить старый торрент у себя из клиента (старые серии удалять не надо);
3. Скачать новый торрент и запустить его у себя в клиенте вместо старого, при этом указать клиенту путь в старую папку куда и должно происходить скачивание новых серий. Ваш клиент при этом должен произвести хеширование (проверку) старой папки и будет докачивать только те серии, которых у вас ещё нет. Старые серии при этом не удаляются, а продолжают раздаваться! Eсли вы уже удалили старые серии, то предотвратить повторную закачку старых серий можно, отжав галочку в соответствующих местах при запуске нового торрента.

pb.wtf



Скачать Сториз через торрент https://i112.fastpic.ru/big/2020/0810/a2/ee4f69e5573d035a99c77008ba75b1a2.jpg Скачать фильм Сториз через торрент бесплантно в хорошем качестве Описание: Скетчком про жизнь героев самых разных интересов и статусов. Сумасшедшая экоактивистка, находчивый алкоголик, судья с приговором ... 9 10 9
Торрент: Зарегистрирован [2020-09-11 10:58] · скачан: 31 раз
Статус: √ проверено
Размер: 3.74 GB
Как cкачать? Как скачать Сториз через торрент | qTorrent



Последний раз редактировалось: bober100 (2020-09-11 10:58), всего редактировалось 4 раз(а)

28-11-2019 20:33  

Отключить всю рекламу на сайте

12-08-2020 19:07 Сториз Скачать торрент  

Кто смотрел? Стоит время тратить на это или УГ?pb.wtf



27-08-2020 17:02 Сториз Скачать торрент  

Hesper писал(а):

Стоит время тратить

По-пьяни местами даже поржать можно. Рекомендую в пятницу вечером под пивко.pb.wtf



    Дорогой пользователь! Огромная просьба, поблагодарите релизера, оцените раздачу и оставьте свои комментарий, если Вы скачали Сториз через торрент бесплатно! Внесите свою лепту в развитие PiratBit!
    Комментировать посты могут только пользователи прошедшие не сложную регистрацию
    Показать сообщения:    

    Сториз через торрент
    Скачать бесплатно Сториз
    Сториз скачать торрент
    Сториз смотреть онлайн
    Cкачать фильм Сториз бесплатно
    Сториз скачать торрент в хорошем качестве
    Сториз смотреть онлайн бесплатно в хорошем качестве


    Вы не можете начинать темы
    Вы не можете отвечать на сообщения
    Вы не можете редактировать свои сообщения
    Вы не можете удалять свои сообщения
    Вы не можете голосовать в опросах
    Вы не можете прикреплять файлы к сообщениям
    Вы можете скачивать файлы