Ссылка на приватное зеркало нашего сайта всего за 1$. Внимание количество ограничено!!!

2 сезон

iTunes

1 сезон

1

2 сезон

2 сезон

iTunes

1 сезон

RePack

30

Ultimate

ВАЖНО

ИГРА 18+

pack

RePack

MK11
pack

Забери бонус

RePack

jed

!!Акция!!

Alien_Rage

RePack

fifa19

RePack

Assassins Creed: Odyssey

RePack

NEED FOR SPEED™ PAYBACK

4 сезон

9 сезон

Бесстыжие 9 сезон

Все сериалы

все сериалы на PB.wtf

RePack

FAR CRY 5
  

Зависнуть в Палм-Спрингс / Палм-Спрингс / Palm Springs (Макс Барбаков) [2020, Комедия, фантастика, WEB-DL 1080p] DUB [iTunes] pb.wtf

Зависнуть в Палм-Спрингс через торрент pb.wtf

Раздают: 9 [ 74 KB/s ]
Размер: 3.18 GB | Добавлен: 3 мес. 21 д. назад | Торрент скачан:629 раз
Скачать  

13-08-2020 02:48 Зависнуть в Палм-Спрингс Скачать торрент  

Зависнуть в Палм-Спрингс | Палм-Спрингс | Palm Springs
Год выпуска: 2020
Страна: США
Выпущено: Limelight, Sun Entertainment Culture, The Lonely Island
Жанр: Комедия, фантастика
Продолжительность: 01:29:59
Перевод: Дублированное | iTunes
Субтитры: Русские (Full), английские, испанские

Режиссер: Макс Барбаков

rating

В ролях: Энди Сэмберг, Кристин Милиоти, Дж.К. Симмонс, Тайлер Хэклин, Питер Галлахер, Дейл Дикки, Камила Мендес, Жаклин Обрадорс, Мередит Хагнер, Крис Пэнг

Описание: На одной летней свадьбе знакомятся сестра невесты Сара и парень подружки невесты Найлз. Интересно, что Найлз на этой свадьбе бывал миллион раз, так как застрял в петле времени. Как вскоре выяснится, в этом праздничном дне сурка торчит довольно много народу, и некоторым тут даже нравится.

Качество: WEB-DL 1080p
Формат: MKV

Видео: MPEG-4 AVC, 1920x1080, 4422 Kbit/s, 24.000 fps
Аудио #01: 48 kHz, AC3, 5.1, 384 Kbps | iTunes | RUS |
Аудио #02: 48 kHz, E-AC3, 5.1, 256 Kbps | Оригинал | ENG |
скриншот  скриншот  скриншот  скриншот  скриншот  

General
Unique ID: 44780206193845676377988386588130345447 (0x21B05A9FE7AC26893C36A76DB40901E7)
Complete name: E:Video111Palm.Springs.2020.WEB-DL.1080p.seleZen.mkv
Format: Matroska
Format version: Version 4
File size: 3.18 GiB
Duration: 1 h 29 min
Overall bit rate: 5 064 kb/s
Movie name: Palm Springs 2020 from селезень
Encoded date: UTC 2020-08-12 19:35:28
Writing application: mkvmerge v40.0.0 ('Old Town Road + Pony') 64-bit
Writing library: libebml v1.3.9 + libmatroska v1.5.2

Video
ID: 1
Format: AVC
Format/Info: Advanced Video Codec
Format profile: High@L4
Format settings: CABAC / 4 Ref Frames
Format settings, CABAC: Yes
Format settings, Reference frames: 4 frames
Codec ID: V_MPEG4/ISO/AVC
Duration: 1 h 29 min
Bit rate: 4 422 kb/s
Width: 1 920 pixels
Height: 1 080 pixels
Display aspect ratio: 16:9
Frame rate mode: Constant
Frame rate: 24.000 FPS
Color space: YUV
Chroma subsampling: 4:2:0
Bit depth: 8 bits
Scan type: Progressive
Bits/(Pixel*Frame): 0.089
Stream size: 2.78 GiB (87%)
Language: English
Default: Yes
Forced: No

Audio #1
ID: 2
Format: AC-3
Format/Info: Audio Coding 3
Commercial name: Dolby Digital
Codec ID: A_AC3
Duration: 1 h 29 min
Bit rate mode: Constant
Bit rate: 384 kb/s
Channel(s): 6 channels
Channel layout: L R C LFE Ls Rs
Sampling rate: 48.0 kHz
Frame rate: 31.250 FPS (1536 SPF)
Compression mode: Lossy
Stream size: 247 MiB (8%)
Title: Full
Language: Russian
Service kind: Complete Main
Default: Yes
Forced: Yes

Audio #2
ID: 3
Format: E-AC-3
Format/Info: Enhanced AC-3
Commercial name: Dolby Digital Plus
Codec ID: A_EAC3
Duration: 1 h 29 min
Bit rate mode: Constant
Bit rate: 256 kb/s
Channel(s): 6 channels
Channel layout: L R C LFE Ls Rs
Sampling rate: 48.0 kHz
Frame rate: 31.250 FPS (1536 SPF)
Compression mode: Lossy
Stream size: 165 MiB (5%)
Title: Original
Language: English
Service kind: Complete Main
Default: No
Forced: No

Text #1
ID: 4
Format: UTF-8
Codec ID: S_TEXT/UTF8
Codec ID/Info: UTF-8 Plain Text
Duration: 1 h 24 min
Bit rate: 106 b/s
Count of elements: 1452
Stream size: 65.9 KiB (0%)
Title: Full
Language: Russian
Default: No
Forced: No

Text #2
ID: 5
Format: UTF-8
Codec ID: S_TEXT/UTF8
Codec ID/Info: UTF-8 Plain Text
Duration: 1 h 29 min
Bit rate: 76 b/s
Count of elements: 1802
Stream size: 50.1 KiB (0%)
Language: English
Default: No
Forced: No

Text #3
ID: 6
Format: UTF-8
Codec ID: S_TEXT/UTF8
Codec ID/Info: UTF-8 Plain Text
Duration: 1 h 29 min
Bit rate: 76 b/s
Count of elements: 1920
Stream size: 50.6 KiB (0%)
Language: Spanish
Default: No
Forced: No

pb.wtf



Скачать Зависнуть в Палм-Спрингс через торрент https://i112.fastpic.ru/big/2020/0813/cb/959f48114b700bbe583c3aa1c14586cb.jpg Скачать фильм Зависнуть в Палм-Спрингс через торрент бесплантно в хорошем качестве Описание: На одной летней свадьбе знакомятся сестра невесты Сара и парень подружки невесты Найлз. Интересно, что Найлз на этой свадьбе ... 9.8 10 16
Торрент: Зарегистрирован [2020-08-13 02:48] · скачан: 629 раз
Статус: √ проверено
Размер: 3.18 GB
Как cкачать? Как скачать Зависнуть в Палм-Спрингс через торрент | qTorrent

% Раздел Тема Автор DL S | L
Фильмы 2019-2020 (Звук TS, Cam, VO, DVO) [ 2.15 GB ] Палм-Спрингс / Зависнуть в Палм-Спрингс / Palm Springs [2020 WEB-DLRip-AVC] [DVO] killermax2013 Скачать
4 | 0
Фильмы 2019-2020 [DVDrip, WEB-DLRip, HDrip] (DUB, MVO) [ 745 MB ] Зависнуть в Палм-Спрингс / Палм-Спрингс / Palm Springs [2020 WEB-DLRip] bober100 Скачать
2 | 0
Фильмы (WEB-DL 720p, 1080p) [ 1.63 GB ] Зависнуть в Палм-Спрингс / Палм-Спрингс / Palm Springs [2020 WEB-DL 720p] bober100 Скачать
2 | 0
Фильмы 2019-2020 [DVDrip, WEB-DLRip, HDrip] (DUB, MVO) [ 1.46 GB ] Зависнуть в Палм-Спрингс / Палм-Спрингс / Palm Springs [2020 WEB-DLRip] bober100 Скачать
5 | 0

28-11-2019 20:33  

Отключить всю рекламу на сайте

13-08-2020 21:45 Зависнуть в Палм-Спрингс Скачать торрент  

Норм комедия, советую к просмотру pb.wtf



    Дорогой пользователь! Огромная просьба, поблагодарите релизера, оцените раздачу и оставьте свои комментарий, если Вы скачали Зависнуть в Палм-Спрингс через торрент бесплатно! Внесите свою лепту в развитие PiratBit!
    Комментировать посты могут только пользователи прошедшие не сложную регистрацию
    Показать сообщения:    

    Зависнуть в Палм-Спрингс через торрент
    Скачать бесплатно Зависнуть в Палм-Спрингс
    Зависнуть в Палм-Спрингс скачать торрент
    Зависнуть в Палм-Спрингс смотреть онлайн
    Cкачать фильм Зависнуть в Палм-Спрингс бесплатно
    Зависнуть в Палм-Спрингс скачать торрент в хорошем качестве
    Зависнуть в Палм-Спрингс смотреть онлайн бесплатно в хорошем качестве


    Вы не можете начинать темы
    Вы не можете отвечать на сообщения
    Вы не можете редактировать свои сообщения
    Вы не можете удалять свои сообщения
    Вы не можете голосовать в опросах
    Вы не можете прикреплять файлы к сообщениям
    Вы можете скачивать файлы