2 сезон

iTunes

MVO

1

2 сезон

iTunes

iTunes

1 сезон

RePack

30

Новинка

ВАЖНО

ИГРА 18+

pack

RePack

MK11
pack

Легкие деньги

RePack

jed

RePack

fifa19

RePack

RDR2

RePack

NEED FOR SPEED™ PAYBACK

4 сезон

9 сезон

Бесстыжие 9 сезон

Все сериалы

все сериалы на PB.wtf

RePack

FAR CRY 5

Anonymous, доброе утро, мы не успеваем собрать деньги на оплату серверов за декабрь и январь, помогите нам пожалуйста в это трудное время. В качестве благодарности мы отключим Вам всю рекламу на сайте (укажите свой ник в строку Ваше имя)!

×
  
Magnet ссылка

Лето 84 / Summer of 84 (Франсуа Симар, Анук Висселль, Йоанн-Карл Висселль) [2018, Ужасы, триллер, драма, детектив, HDRip-AVC] [DUB] [iTunes] от wolf1245 & MediaBit pb.wtf

Лето 84 через торрент pb.wtf

Размер: 752 MB | Добавлен: 5 мес. 13 д. назад | Торрент скачан:72 раза
Скачать  

14-08-2020 14:34 Лето 84 Скачать торрент  


Лето 84 / Summer of 84
Информация о фильме:
Название: Лето 84
Оригинальное название: Summer of 84
Год выхода: 2018
Жанр: Ужасы, триллер, драма, детектив
Режиссер: Франсуа Симар, Анук Висселль, Йоанн-Карл Висселль

В ролях: Грэм Верчир, Джуда Льюис, Калеб Эмери, Кори Грютер-Эндрю, Тиера Сковбай, Рич Соммер, Джейсон Грей-Стенфорд, Шона Йоханнесен, Марк Брэндон, Дж. Алекс Бринсон

Описание: Четверо 15-летних друзей проводят лето 1984 года за необычным занятием: они вычисляют серийного убийцу, несколько лет подряд орудующего в округе. Все улики ведут к соседскому дому, где живёт уважаемый офицер полиции.

rating

Страна: Канада, США
Студия: Brightlight Pictures, Gunpowder & Sky
Продолжительность: 01:45:36
Перевод: Дублированный - iTunes



Информация о файле:
Кодек: AVC
Формат: MKV
Качество: HDRip-AVC
Видео: MPEG-4 AVC, 762x320 (2,40:1), 898 Кбит/сек, 23,976 (24000/1001) кадра/сек, 0.154
Аудио RU: AAC-HE, 2 ch, 48 kHz, 96 kbps
Субтитры: Нет
Чаптеры: Да

|
Общее
Уникальный идентификатор : 114992257262163043487371223128774468812 (0x5682B402840B5F1538E2C7250A1EE4CC)
Полное имя : D:uTorrentSummer of_84_2018_HDRip-AVC_wolf1245_MediaBit.mkv
Формат : Matroska
Версия формата : Version 4
Размер файла : 752 Мбайт
Продолжительность : 1 ч. 45 м.
Общий поток : 995 Кбит/сек
Название фильма : Summer of_84_2018_HDRip-AVC_wolf1245_MediaBit
Дата кодирования : UTC 2020-08-14 14:19:13
Программа кодирования : mkvmerge v49.0.0 ('Sick Of Losing Soulmates') 64-bit
Библиотека кодирования : libebml v1.4.0 + libmatroska v1.6.1
Обложка : Yes
Attachments : Cover.png
Видео
Идентификатор : 1
Формат : AVC
Формат/Информация : Advanced Video Codec
Профиль формата : High@L4.1
Настройки формата : CABAC / 12 Ref Frames
Параметр CABAC формата : Да
Параметр RefFrames формата : 12 кадров
Идентификатор кодека : V_MPEG4/ISO/AVC
Продолжительность : 1 ч. 45 м.
Битрейт : 898 Кбит/сек
Ширина : 762 пикселя
Высота : 320 пикселей
Соотношение сторон : 2,40:1
Режим частоты кадров : Постоянный
Частота кадров : 23,976 (24000/1001) кадра/сек
Цветовое пространство : YUV
Субдискретизация насыщенности : 4:2:0
Битовая глубина : 8 бит
Тип развёртки : Прогрессивная
Бит/(Пиксели*Кадры) : 0.154
Размер потока : 677 Мбайт (90%)
Заголовок : wolf1245_MediaBit
Библиотека кодирования : x264 core 157 r2958 57baac4
Настройки программы : cabac=1 / ref=12 / deblock=1:-3:-3 / analyse=0x3:0x133 / me=umh / subme=11 / psy=1 / psy_rd=1.00:0.15 / mixed_ref=1 / me_range=48 / chroma_me=1 / trellis=2 / 8x8dct=1 / cqm=0 / deadzone=21,11 / fast_pskip=0 / chroma_qp_offset=-3 / threads=10 / lookahead_threads=2 / sliced_threads=0 / nr=0 / decimate=0 / interlaced=0 / bluray_compat=0 / constrained_intra=0 / bframes=12 / b_pyramid=2 / b_adapt=2 / b_bias=12 / direct=3 / weightb=1 / open_gop=0 / weightp=2 / keyint=240 / keyint_min=24 / scenecut=40 / intra_refresh=0 / rc_lookahead=60 / rc=2pass / mbtree=0 / bitrate=898 / ratetol=1.0 / qcomp=0.60 / qpmin=0 / qpmax=69 / qpstep=4 / cplxblur=20.0 / qblur=0.5 / vbv_maxrate=50000 / vbv_bufsize=62500 / nal_hrd=none / filler=0 / ip_ratio=1.40 / pb_ratio=1.30 / aq=1:1.00
Язык : English
Default : Да
Forced : Нет

Аудио
Идентификатор : 2
Формат : AAC LC SBR
Формат/Информация : Advanced Audio Codec Low Complexity with Spectral Band Replication
Коммерческое название : HE-AAC
Настройки формата : Implicit
Идентификатор кодека : A_AAC-2
Продолжительность : 1 ч. 45 м.
Битрейт : 96,0 Кбит/сек
Каналы : 2 канала
Channel layout : L R
Частота : 48,0 КГц
Частота кадров : 23,438 кадра/сек (2048 SPF)
Метод сжатия : С потерями
Размер потока : 72,5 Мбайт (10%)
Заголовок : DUB | iTunes
Язык : Russian
Default : Да
Forced : Нет

Меню
00:00:00.000 : :Chapter 1
00:20:01.200 : :Chapter 2
00:40:02.400 : :Chapter 3
01:00:04.601 : :Chapter 4
01:20:04.800 : :Chapter 5
01:30:06.401 : :Chapter 6
01:41:03.057 : :Chapter 7
01:45:36.330 : :Chapter 8
Рип от: &
pb.wtf



Скачать Лето 84 через торрент https://b.radikal.ru/b19/2008/32/8f1846472c0a.png Скачать фильм Лето 84 через торрент бесплантно в хорошем качестве Описание: Четверо 15-летних друзей проводят лето 1984 года за необычным занятием: они вычисляют серийного убийцу, несколько лет подряд ... 10 10 3
Торрент: Зарегистрирован [2020-08-14 14:34] · скачан: 72 раз
Статус: √ проверено
Размер: 752 MB
Как cкачать? Как скачать Лето 84 через торрент | UTorrent

28-11-2019 20:33  

Отключить всю рекламу на сайте

    Дорогой пользователь! Огромная просьба, поблагодарите релизера, оцените раздачу и оставьте свои комментарий, если Вы скачали Лето 84 через торрент бесплатно! Внесите свою лепту в развитие PiratBit!
    Комментировать посты могут только пользователи прошедшие не сложную регистрацию
    Показать сообщения:    

    Лето 84 через торрент
    Скачать бесплатно Лето 84
    Лето 84 скачать торрент
    Лето 84 смотреть онлайн
    Cкачать фильм Лето 84 бесплатно
    Лето 84 скачать торрент в хорошем качестве
    Лето 84 смотреть онлайн бесплатно в хорошем качестве


    Вы не можете начинать темы
    Вы не можете отвечать на сообщения
    Вы не можете редактировать свои сообщения
    Вы не можете удалять свои сообщения
    Вы не можете голосовать в опросах
    Вы не можете прикреплять файлы к сообщениям
    Вы можете скачивать файлы