2 сезон

iTunes

MVO

1

2 сезон

iTunes

iTunes

1 сезон

RePack

30

Новинка

ВАЖНО

ИГРА 18+

pack

RePack

MK11
pack

Легкие деньги

RePack

jed

RePack

fifa19

RePack

RDR2

RePack

NEED FOR SPEED™ PAYBACK

4 сезон

9 сезон

Бесстыжие 9 сезон

Все сериалы

все сериалы на PB.wtf

RePack

FAR CRY 5

Anonymous, добрый вечер, мы не успеваем собрать деньги на оплату серверов за декабрь и январь, помогите нам пожалуйста в это трудное время. В качестве благодарности мы отключим Вам всю рекламу на сайте (укажите свой ник в строку Ваше имя)!

×
  
Magnet ссылка

Король Стейтен-Айленда / The King of Staten Island (Джадд Апатоу) [2020, Драма, комедия, BDRip 720p] MVO [HDRezka Studio] pb.wtf

Король Стейтен-Айленда через торрент pb.wtf

Раздают: 2 [ 1 KB/s ]
Размер: 7.52 GB | Добавлен: 5 мес. 1 д. назад | Торрент скачан:106 раз
Скачать  

15-08-2020 03:14 Король Стейтен-Айленда Скачать торрент  

Король Стейтен-Айленда | The King of Staten Island
Год выпуска: 2020
Страна: США
Студия: Apatow Productions, Perfect World (Beijing) Pictures Co., Universal Pictures
Жанр: Драма, комедия
Продолжительность: 02:17:15
Перевод: Профессиональный (многоголосый) | HDRezka Studio
Субтитры: Русские (Full), английские

Режиссер: Джадд Апатоу

rating скриншот  

В ролях: Пит Дэвидсон, Мариса Томей, Билл Бёрр, Бел Паули, Мод Апатоу, Стив Бушеми, Рики Велес, Мойзес Ариас, Лу Уилсон, Карли Аквилино, Энгус Костелло, Полин Шаламе, Джозеф Пол Кеннеди, Нина Хеллман, Кевин Корригэн

Описание: 24-летний инфантил по имени Скотт живёт с мамой и младшей сестрой в нью-йоркском районе Стейтен-Айленд. С самого детства парень не может смириться со смертью отца-пожарного и теперь всё время проводит за курением травки и набиванием друзьям кривых татуировок. Когда сестра уезжает в колледж, а его мама впервые после смерти мужа начинает встречаться с мужчиной, тоже пожарным, Скотт решает, что такие перемены в жизни ему не нужны, и теперь он будет пытаться расстроить мамины отношения.

Качество: BDRip 720p
Формат: MKV

Видео: MPEG-4 AVC, 1280x538, 6943 Kbit/s, 23.976 fps
Аудио #01: 48 kHz, AC3, 5.1, 448 Kbps | HDRezka Studio | RUS |
Аудио #02: 48 kHz, AC3, 5.1, 448 Kbps | Оригинал | ENG |
скриншот  скриншот  скриншот  скриншот  скриншот  

General
Unique ID : 290484515799119737412762341547858701795 (0xDA894861602D8283192E1F354433ADE3)
Complete name : E:Video111The.King.of.Staten.Island.2020.BDRip.720p.seleZen.mkv
Format : Matroska
Format version : Version 4
File size : 7.52 GiB
Duration : 2 h 17 min
Overall bit rate : 7 842 kb/s
Movie name : The King of Staten Island 2020 from селезень
Encoded date : UTC 2020-08-15 00:13:11
Writing application : mkvmerge v40.0.0 ('Old Town Road + Pony') 64-bit
Writing library : libebml v1.3.9 + libmatroska v1.5.2

Video
ID : 1
Format : AVC
Format/Info : Advanced Video Codec
Format profile : High@L4.1
Format settings : CABAC / 12 Ref Frames
Format settings, CABAC : Yes
Format settings, Reference frames : 12 frames
Codec ID : V_MPEG4/ISO/AVC
Duration : 2 h 17 min
Bit rate : 6 943 kb/s
Width : 1 280 pixels
Height : 536 pixels
Display aspect ratio : 2.40:1
Frame rate mode : Constant
Frame rate : 23.976 (24000/1001) FPS
Color space : YUV
Chroma subsampling : 4:2:0
Bit depth : 8 bits
Scan type : Progressive
Bits/(Pixel*Frame) : 0.422
Stream size : 6.66 GiB (89%)
Title : MTeam
Writing library : x264 core 157 r2938 2b00a84 TnP@MTeam Mod
Encoding settings : cabac=1 / ref=12 / deblock=1:-3:-3 / analyse=0x3:0x133 / me=umh / subme=10 / psy=1 / psy_rd=1.05:0.00 / mixed_ref=1 / me_range=32 / chroma_me=1 / trellis=2 / 8x8dct=1 / cqm=0 / deadzone=21,11 / fast_pskip=0 / chroma_qp_offset=-2 / threads=12 / lookahead_threads=2 / sliced_threads=0 / nr=0 / decimate=0 / interlaced=0 / bluray_compat=0 / constrained_intra=0 / bframes=8 / b_pyramid=2 / b_adapt=2 / b_bias=0 / direct=3 / weightb=1 / open_gop=0 / weightp=2 / keyint=250 / keyint_min=24 / scenecut=40 / intra_refresh=0 / rc_lookahead=250 / rc=crf / mbtree=0 / crf=16.8 / qcomp=0.60 / qpmin=0 / qpmax=69 / qpstep=4 / vbv_maxrate=62500 / vbv_bufsize=78125 / crf_max=0.0 / nal_hrd=none / filler=0 / ip_ratio=1.30 / pb_ratio=1.20 / aq=3:0.80
Language : English
Default : Yes
Forced : No
Color range : Limited
Color primaries : BT.709
Matrix coefficients : BT.709

Audio #1
ID : 2
Format : AC-3
Format/Info : Audio Coding 3
Commercial name : Dolby Digital
Codec ID : A_AC3
Duration : 2 h 17 min
Bit rate mode : Constant
Bit rate : 448 kb/s
Channel(s) : 6 channels
Channel layout : L R C LFE Ls Rs
Sampling rate : 48.0 kHz
Frame rate : 31.250 FPS (1536 SPF)
Compression mode : Lossy
Stream size : 440 MiB (6%)
Title : MVO [HDRezka Studio]
Language : Russian
Service kind : Complete Main
Default : Yes
Forced : Yes

Audio #2
ID : 3
Format : AC-3
Format/Info : Audio Coding 3
Commercial name : Dolby Digital
Codec ID : A_AC3
Duration : 2 h 17 min
Bit rate mode : Constant
Bit rate : 448 kb/s
Channel(s) : 6 channels
Channel layout : L R C LFE Ls Rs
Sampling rate : 48.0 kHz
Frame rate : 31.250 FPS (1536 SPF)
Compression mode : Lossy
Stream size : 440 MiB (6%)
Language : English
Service kind : Complete Main
Default : No
Forced : No

Text #1
ID : 4
Format : UTF-8
Codec ID : S_TEXT/UTF8
Codec ID/Info : UTF-8 Plain Text
Duration : 2 h 11 min
Bit rate : 177 b/s
Count of elements : 3354
Stream size : 170 KiB (0%)
Title : Full [FOCS]
Language : Russian
Default : No
Forced : No

Text #2
ID : 5
Format : UTF-8
Codec ID : S_TEXT/UTF8
Codec ID/Info : UTF-8 Plain Text
Duration : 2 h 17 min
Bit rate : 122 b/s
Count of elements : 3748
Stream size : 123 KiB (0%)
Title : SDH
Language : English
Default : No
Forced : No

Menu
00:00:00.000 : en:Capítulo 01
00:07:59.770 : en:Capítulo 02
00:15:21.795 : en:Capítulo 03
00:21:31.665 : en:Capítulo 04
00:30:29.953 : en:Capítulo 05
00:35:49.772 : en:Capítulo 06
00:43:32.276 : en:Capítulo 07
00:51:07.439 : en:Capítulo 08
00:58:17.452 : en:Capítulo 09
01:06:46.669 : en:Capítulo 10
01:11:39.920 : en:Capítulo 11
01:16:35.924 : en:Capítulo 12
01:21:36.933 : en:Capítulo 13
01:29:12.096 : en:Capítulo 14
01:34:21.864 : en:Capítulo 15
01:41:33.295 : en:Capítulo 16
01:46:17.245 : en:Capítulo 17
01:56:30.233 : en:Capítulo 18
02:04:11.026 : en:Capítulo 19
02:11:48.859 : en:Capítulo 20

pb.wtf



Скачать Король Стейтен-Айленда через торрент https://i112.fastpic.ru/big/2020/0815/c5/e9aac59f64880b5cd9d6972a6d66c9c5.jpg Скачать фильм Король Стейтен-Айленда через торрент бесплантно в хорошем качестве Описание: 24-летний инфантил по имени Скотт живёт с мамой и младшей сестрой в нью-йоркском районе Стейтен-Айленд. С самого детства парень ... 10 10 6
Торрент: Зарегистрирован [2020-08-15 03:14] · скачан: 106 раз
Статус: √ проверено
Размер: 7.52 GB
Как cкачать? Как скачать Король Стейтен-Айленда через торрент | UTorrent

% Раздел Тема Автор DL S | L
Фильмы 2019-2020 [DVDrip, WEB-DLRip, HDrip] (DUB, MVO) [ 2.12 GB ] Король Стейтен-Айленда / The King of Staten Island [2020 BDRip] DUB Twi7ter Скачать
26 | 1
Фильмы 2019-2020 [DVDrip, WEB-DLRip, HDrip] (DUB, MVO) [ 1.46 GB ] Король Стейтен-Айленда / The King of Staten Island [2020 BDRip] DUB Twi7ter Скачать
39 | 3
Фильмы 2019-2020 [DVDrip, WEB-DLRip, HDrip] (DUB, MVO) [ 835 MB ] Король Стейтен-Айленда / The King of Staten Island [2020 HDRip ] coc900 Скачать
2 | 0
Фильмы 2019-2020 [DVDrip, WEB-DLRip, HDrip] (DUB, MVO) [ 2.12 GB ] Король Стейтен-Айленда / The King of Staten Island [2020 BDRip] DUB bober100 Скачать
6 | 0
Фильмы 2019-2020 [DVDrip, WEB-DLRip, HDrip] (DUB, MVO) [ 1.46 GB ] Король Стейтен-Айленда / The King of Staten Island [2020 BDRip] DUB bober100 Скачать
4 | 0
Фильмы [HD 720p, 1080p] (Хороший звук DUB, MVO) [ 20.9 GB ] Король Стейтен-Айленда / The King of Staten Island [2020 BDRip 1080p] DUB bober100 Скачать
4 | 0
Фильмы 2019-2020 [DVDrip, WEB-DLRip, HDrip] (DUB, MVO) [ 2.9 GB ] Король Стейтен-Айленда / The King of Staten Island [2020 BDRip-AVC] MVO [HDRezka Studio] bober100 Скачать
3 | 0

28-11-2019 20:33  

Отключить всю рекламу на сайте

    Дорогой пользователь! Огромная просьба, поблагодарите релизера, оцените раздачу и оставьте свои комментарий, если Вы скачали Король Стейтен-Айленда через торрент бесплатно! Внесите свою лепту в развитие PiratBit!
    Комментировать посты могут только пользователи прошедшие не сложную регистрацию
    Показать сообщения:    

    Король Стейтен-Айленда через торрент
    Скачать бесплатно Король Стейтен-Айленда
    Король Стейтен-Айленда скачать торрент
    Король Стейтен-Айленда смотреть онлайн
    Cкачать фильм Король Стейтен-Айленда бесплатно
    Король Стейтен-Айленда скачать торрент в хорошем качестве
    Король Стейтен-Айленда смотреть онлайн бесплатно в хорошем качестве


    Вы не можете начинать темы
    Вы не можете отвечать на сообщения
    Вы не можете редактировать свои сообщения
    Вы не можете удалять свои сообщения
    Вы не можете голосовать в опросах
    Вы не можете прикреплять файлы к сообщениям
    Вы можете скачивать файлы