Лицензия

MVO

1

1 сезон

Лицензия

Лицензия

13

MVO

1 сезон

Deluxe Edition

pack

Рекомендуем

30

Repack

ВАЖНО

ВАЖНО

Ghostwire

RePack

jed

RePack

fifa19

RePack

RDR2

RePack

NEED FOR SPEED™ PAYBACK

RePack

Кинопоиск HD

 Острые козырьки 6 сезон

6 сезон

FAR CRY 6

RePack

Лицензия

MVO

1

1 сезон

1 сезон

Лицензия

  

II / Два (Влада Сенькова) [2019, Драма, WEB-DL 1080p] [iTunes]

II через торрент pb.wtf

Размер: 1.97 GB | Добавлен: 2 года 1 мес. назад | Торрент скачан:270 раз
Смотреть онлайн II | Скачать   

15-08-2020 07:26 II Скачать торрент  

II | Два
Год выпуска: 2019
Страна: Беларусь
Выпущено: АРТ Корпорейшн
Жанр: Драма
Продолжительность: 01:00:13
Перевод: Не требуется | iTunes
Субтитры: отсутствуют

Режиссер: Влада Сенькова

rating

В ролях: Алина Юхневич, Алексей Вайнилович, Илария Шашко, Александр Лесько, Светлана Тимохина, Наталия Подвицкая, Ирина Корниевич, Анна Анисенко, Роман Подоляко, Светлана Соколовская

Описание: Герои фильма, 16-летние Настя, Саша и Кристина, учатся вместе в десятом классе и живут обыкновенной жизнью подростков: уроки, репетиторы, походы в кино, вечеринки. В школе царит суровая дисциплина и трудно быть не таким, как все. Но однажды этот маленький мир потрясет новость, из-за которой все страхи и предрассудки вылезут наружу.

Качество: WEB-DL 1080p
Формат: MKV

Видео: MPEG-4 AVC, 4569 Kb/s, 1920x808, 24.000 FPS
Аудио: 48 kHz, Advanced Audio Codec, 2/0 (L, R) ch, ~160 Kbps
скриншот  скриншот  скриншот  скриншот  

Video
ID: 1
Format: AVC
Format/Info: Advanced Video Codec
Format profile: [email protected]
Format settings: CABAC / 5 Ref Frames
Format settings, CABAC: Yes
Format settings, Reference: 5 frames
Codec ID: V_MPEG4/ISO/AVC
Duration: 1 h 0 min
Bit rate: 4 569 kb/s
Width: 1 920 pixels
Height: 808 pixels
Display aspect ratio: 2.40:1
Frame rate mode: Constant
Frame rate: 24.000 FPS
Color space: YUV
Chroma subsampling: 4:2:0
Bit depth: 8 bits
Scan type: Progressive
Bits/(Pixel*Frame): 0.123
Stream size: 1.92 GiB (97%)
Title: II_2019_WEB-DL_1080p-BLUEBIRD
Language: English
Default: Yes
Forced: No
Color range: Limited
Color primaries: BT.709
Transfer characteristics: BT.709
Matrix coefficients: BT.709

Audio
ID: 2
Format: AAC LC
Format/Info: Advanced Audio Codec Low Complexity
Codec ID: A_AAC-2
Duration: 1 h 0 min
Bit rate: 123 kb/s
Channel(s): 2 channels
Channel layout: L R
Sampling rate: 48.0 kHz
Frame rate: 46.875 FPS (1024 SPF)
Compression mode: Lossy
Delay relative to video: -42 ms
Stream size: 52.8 MiB (3%)
Title: [ORIGINAL] AAC 2.0 @ 160 kbps
Language: Russian
Default: Yes
Forced: No

Menu
00:00:00.000: en:Глава 1
00:03:15.791: en:Глава 2
00:08:19.166: en:Глава 3
00:16:04.457: en:Глава 4
00:23:21.290: en:Глава 5
00:30:33.331: en:Глава 6
00:34:59.956: en:Глава 7
00:42:50.372: en:Глава 8
00:48:01.288: en:Глава 9
00:55:45.496: en:Глава 10




Скачать II через торрент https://d.radikal.ru/d40/2008/42/31c66ff34507.png Скачать, смотреть онлайн II бесплантно в хорошем качестве Описание: Герои фильма, 16-летние Настя, Саша и Кристина, учатся вместе в десятом классе и живут обыкновенной жизнью подростков: уроки, ... 10 10 6
Торрент: Зарегистрирован [2020-08-15 07:26] · скачан: 270 раз
Статус: T временная
Размер: 1.97 GB
Как cкачать? Как скачать II через торрент | UTorrent

% Раздел Тема Автор DL S | L
Наши фильмы 2018-2019 [ 743 MB ] II / Два | iTunes | DLRip bober100 Скачать
1 | 0
Наши фильмы 2018-2019 [ 1.09 GB ] II / Два | iTunes | DLRip-AVC bober100 Скачать
1 | 0
Наши фильмы 2018-2019 [ 1.09 GB ] II / Два | iTunes | DLRip bober100 Скачать
1 | 0

28-11-2019 20:33  

Отключить вcю реклaмy на сайте

    Дорогой пользователь! Огромная просьба, поблагодарите релизера, оцените раздачу и оставьте свои комментарий, если Вы скачали II через торрент бесплатно!!
    Комментировать посты могут только пользователи прошедшие не сложную регистрацию
    Показать сообщения:    


    II через торрент
    Скачать бесплатно II
    II скачать торрент
    II смотреть онлайн
    Cкачать фильм II бесплатно
    II скачать торрент в хорошем качестве
    II смотреть онлайн бесплатно в хорошем качестве
    Вы не можете начинать темы
    Вы не можете отвечать на сообщения
    Вы не можете редактировать свои сообщения
    Вы не можете удалять свои сообщения
    Вы не можете голосовать в опросах
    Вы не можете прикреплять файлы к сообщениям
    Вы можете скачивать файлы