1 сезон

1 сезон

iTunes

1

КиноПоиск HD

Кинопоиск HD

iTunes

13

1 сезон

RePack

30

Новинка

ВАЖНО

ИГРА 18+

pack

RePack

MK11
pack

Легкие деньги

RePack

jed

RePack

fifa19

RePack

RDR2

RePack

NEED FOR SPEED™ PAYBACK

4 сезон

9 сезон

Бесстыжие 9 сезон

Все сериалы

все сериалы на PB.wtf

RePack

FAR CRY 5
  
Magnet ссылка

Страх.сом / Feardotcom (Уильям Мэлоун) [2002 г., Ужасы, триллер, криминал, WEB-DLRip-AVC, Дубляж, Оригинал] pb.wtf

Страх.сом через торрент pb.wtf

Размер: 2.13 GB | Добавлен: 8 мес. назад | Торрент скачан:26 раз
Скачать  

15-08-2020 18:08 Страх.сом Скачать торрент  

Страх.сом /
Feardotcom
Год выпуска: 2002
Страна: Великобритания, Германия, Люксембург
Жанр: Ужасы, триллер, криминал
Продолжительность: 01:41:22
Перевод: Дубляж

Режиссер: Уильям Мэлоун

Премьера в мире: 9 августа 2002

rating

В ролях: Стивен Дорфф, Наташа МакЭлхоун, Стивен Ри, Удо Кир, Амелия Кёртис, Джеффри Комбс, Найджел Терри, Гезина Кукровски, Майкл Саразин, Яна Гюттгеманнс

Описание: Четыре тела обнаружены среди индустриального распада и городской грязи Нью-Йорка. Команда молодого детектива Майка Рейлли с честолюбивым исследователем из Министерства здравоохранения Терри Хьюстон пытаются раскрыть причину этих необъяснимых смертельных случаев.
Единственный фактор, объединяющий жертв, каждый умер точно через 48 часов после логина на Feardot.com. Они наказывались за их любопытство? Чтобы расследовать это дело Майк входит в систему, и часы начинают обратный отсчет - теперь у него есть только 48 часов...

Качество: WEB-DLRip-AVC
Формат: MKV
Видео кодек: H.264
Аудио кодек: AC3
Видео: AVC/H.264, 1024х424 (2,40:1), ~2432 kbps, 0.234 bit/pixel
Аудио#1: AC3, 2 ch, 192 kbps - русский дубляж
Аудио#2: AC3, 6 ch, 384 kbps - оригинал
Релиз от: winchester00100010
x264 [info]: profile High, level 4.1, 4:2:0, 8-bit
x264 [info]: frame I:1306 Avg QP:12.26 size: 56018 PSNR Mean Y:50.51 U:56.38 V:56.57 Avg:51.49 Global:50.08
x264 [info]: frame P:36782 Avg QP:14.30 size: 23651 PSNR Mean Y:48.35 U:56.77 V:56.91 Avg:49.45 Global:47.89
x264 [info]: frame B:107664 Avg QP:16.92 size: 8401 PSNR Mean Y:47.15 U:55.62 V:55.75 Avg:48.30 Global:46.71

Общее
Уникальный идентификатор : 187015447146442926823424503291031415040 (0x8CB1DD6ED1F1081FAC85F818EF256900)
Полное имя : D:\Мои раздачи и рипы\Страх.ком.Feardotcom.2002.AMZN.WEB-DLRip-AVC.mkv
Формат : Matroska
Версия формата : Version 2
Размер файла : 2,13 Гбайт
Продолжительность : 1 ч. 41 м.
Общий поток : 3 008 Кбит/сек
Дата кодирования : UTC 2020-08-13 20:05:01
Программа кодирования : mkvmerge v5.8.0 ('No Sleep / Pillow') built on Sep 2 2012 15:37:04
Библиотека кодирования : libebml v1.2.3 + libmatroska v1.3.0

Видео
Идентификатор : 1
Формат : AVC
Формат/Информация : Advanced Video Codec
Профиль формата : High@L4.1
Настройки формата : CABAC / 12 Ref Frames
Параметр CABAC формата : Да
Параметр RefFrames формата : 12 кадров
Идентификатор кодека : V_MPEG4/ISO/AVC
Продолжительность : 1 ч. 41 м.
Битрейт : 2 432 Кбит/сек
Ширина : 1 024 пикселя
Высота : 424 пикселя
Соотношение сторон : 2,40:1
Режим частоты кадров : Постоянный
Частота кадров : 23,976 (24000/1001) кадра/сек
Цветовое пространство : YUV
Субдискретизация насыщенности : 4:2:0
Битовая глубина : 8 бит
Тип развёртки : Прогрессивная
Бит/(Пиксели*Кадры) : 0.234
Размер потока : 1,68 Гбайт (79%)
Заголовок : Страх.ком.Feardotcom.2002.AMZN.WEB-DLRip-AVC
Библиотека кодирования : x264 core 160 r3009 4c9b076
Настройки программы : cabac=1 / ref=12 / deblock=1:-3:-3 / analyse=0x3:0x133 / me=umh / subme=9 / psy=1 / psy_rd=1.00:0.15 / mixed_ref=1 / me_range=32 / chroma_me=1 / trellis=2 / 8x8dct=1 / cqm=0 / deadzone=21,11 / fast_pskip=0 / chroma_qp_offset=-3 / threads=12 / lookahead_threads=2 / sliced_threads=0 / nr=0 / decimate=0 / interlaced=0 / bluray_compat=0 / constrained_intra=0 / bframes=6 / b_pyramid=2 / b_adapt=2 / b_bias=0 / direct=3 / weightb=1 / open_gop=0 / weightp=2 / keyint=240 / keyint_min=23 / scenecut=40 / intra_refresh=0 / rc_lookahead=40 / rc=2pass / mbtree=0 / bitrate=2432 / ratetol=1.0 / qcomp=0.60 / qpmin=0 / qpmax=69 / qpstep=4 / cplxblur=20.0 / qblur=0.5 / vbv_maxrate=50000 / vbv_bufsize=62500 / nal_hrd=none / filler=0 / ip_ratio=1.40 / pb_ratio=1.30 / aq=1:0.90
Язык : English
Default : Да
Forced : Нет
Duration_Source : General_Duration

Аудио #1
Идентификатор : 2
Формат : AC-3
Формат/Информация : Audio Coding 3
Коммерческое название : Dolby Digital
Идентификатор кодека : A_AC3
Продолжительность : 1 ч. 41 м.
Вид битрейта : Постоянный
Битрейт : 192 Кбит/сек
Каналы : 2 канала
Channel layout : L R
Частота : 48,0 КГц
Частота кадров : 31,250 кадров/сек (1536 SPF)
Метод сжатия : С потерями
Размер потока : 139 Мбайт (6%)
Заголовок : (Дубляж) AC3 2ch 192 kbps
Язык : Russian
Service kind : Complete Main
Default : Да
Forced : Да
Duration_Source : General_Duration

Аудио #2
Идентификатор : 3
Формат : AC-3
Формат/Информация : Audio Coding 3
Коммерческое название : Dolby Digital
Идентификатор кодека : A_AC3
Продолжительность : 1 ч. 41 м.
Вид битрейта : Постоянный
Битрейт : 384 Кбит/сек
Каналы : 6 каналов
Channel layout : L R C LFE Ls Rs
Частота : 48,0 КГц
Частота кадров : 31,250 кадров/сек (1536 SPF)
Метод сжатия : С потерями
Размер потока : 278 Мбайт (13%)
Заголовок : Оригинал (Eng) AC3 6ch 384 kbps
Язык : English
Service kind : Complete Main
Default : Нет
Forced : Нет
Duration_Source : General_Duration

pb.wtf



Скачать Страх.сом через торрент https://d.radikal.ru/d36/2008/b7/e2e02723c3ba.jpg Скачать фильм Страх.сом через торрент бесплантно в хорошем качестве Описание: Четыре тела обнаружены среди индустриального распада и городской грязи Нью-Йорка. Команда молодого детектива Майка Рейлли с ... 5 10 1
Торрент: Зарегистрирован [2020-08-15 18:08] · скачан: 26 раз
Статус: √ проверено
Размер: 2.13 GB
Как cкачать? Как скачать Страх.сом через торрент | UTorrent

% Раздел Тема Автор DL S | L
Фильмы (WEB-DL 720p, 1080p) [ 5.86 GB ] Страх.сом / Feardotcom [2002 WEB-DL 1080p Оригинал] winchester00100010 Скачать
1 | 0
Фильмы 2001-2005 [ 1.46 GB ] Страх.сом / FeardotCom [2002 DVDRip] Sудья Скачать
1 | 0

28-11-2019 20:33  

Отключить всю рекламу на сайте

    Дорогой пользователь! Огромная просьба, поблагодарите релизера, оцените раздачу и оставьте свои комментарий, если Вы скачали Страх.сом через торрент бесплатно! Внесите свою лепту в развитие PiratBit!
    Комментировать посты могут только пользователи прошедшие не сложную регистрацию
    Показать сообщения:    

    Страх.сом через торрент
    Скачать бесплатно Страх.сом
    Страх.сом скачать торрент
    Страх.сом смотреть онлайн
    Cкачать фильм Страх.сом бесплатно
    Страх.сом скачать торрент в хорошем качестве
    Страх.сом смотреть онлайн бесплатно в хорошем качестве


    Вы не можете начинать темы
    Вы не можете отвечать на сообщения
    Вы не можете редактировать свои сообщения
    Вы не можете удалять свои сообщения
    Вы не можете голосовать в опросах
    Вы не можете прикреплять файлы к сообщениям
    Вы можете скачивать файлы