2 сезон

iTunes

MVO

1

2 сезон

iTunes

iTunes

1 сезон

RePack

30

Новинка

ВАЖНО

ИГРА 18+

pack

RePack

MK11
pack

Легкие деньги

RePack

jed

RePack

fifa19

RePack

RDR2

RePack

NEED FOR SPEED™ PAYBACK

4 сезон

9 сезон

Бесстыжие 9 сезон

Все сериалы

все сериалы на PB.wtf

RePack

FAR CRY 5

Anonymous, доброе утро, мы не успеваем собрать деньги на оплату серверов за декабрь и январь, помогите нам пожалуйста в это трудное время. В качестве благодарности мы отключим Вам всю рекламу на сайте (укажите свой ник в строку Ваше имя)!

×
  
Magnet ссылка

Король Стейтен-Айленда / The King of Staten Island (Джадд Апатоу) [2020, Драма, комедия, BDRip-AVC] MVO [HDRezka Studio] pb.wtf

Король Стейтен-Айленда через торрент pb.wtf

Раздают: 1 [ 0 KB/s ]
Размер: 2.9 GB | Добавлен: 5 мес. 8 д. назад | Торрент скачан:112 раз
Скачать  

16-08-2020 06:37 Король Стейтен-Айленда Скачать торрент  

Король Стейтен-Айленда | The King of Staten Island
Год выпуска: 2020
Страна: США
Студия: Apatow Productions, Perfect World (Beijing) Pictures Co., Universal Pictures
Жанр: Драма, комедия
Продолжительность: 02:17:15
Перевод: Профессиональный (многоголосый) | HDRezka Studio
Субтитры: Русские (Full), английские (SDH)

Режиссер: Джадд Апатоу

rating

В ролях: Пит Дэвидсон, Мариса Томей, Билл Бёрр, Бел Паули, Мод Апатоу, Стив Бушеми, Рики Велес, Мойзес Ариас, Лу Уилсон, Карли Аквилино, Энгус Костелло, Полин Шаламе, Джозеф Пол Кеннеди, Нина Хеллман, Кевин Корригэн

Описание: 24-летний инфантил по имени Скотт живёт с мамой и младшей сестрой в нью-йоркском районе Стейтен-Айленд. С самого детства парень не может смириться со смертью отца-пожарного и теперь всё время проводит за курением травки и набиванием друзьям кривых татуировок. Когда сестра уезжает в колледж, а его мама впервые после смерти мужа начинает встречаться с мужчиной, тоже пожарным, Скотт решает, что такие перемены в жизни ему не нужны, и теперь он будет пытаться расстроить мамины отношения.

Качество: BDRip-AVC
Формат: MKV

Видео: 1024x428 (2, 40:1), 24 fps, MPEG-4 AVC ~ 2124 Kbps avg, 0.202 bit/pixel
Аудио#1: AC3, 48 kHz, 6 ch, ~448.00 kbps avg | русский | HDRezka Studio
Аудио#2: AC3, 48 kHz, 6 ch, ~448.00 kbps avg | английский | Оригинал
скриншот  скриншот  скриншот  скриншот  скриншот  

Общее
Уникальный идентификатор : 218471251912084139142669832034454660796 (0xA45C0858C52893AE95DFB96C8730E6BC)
Полное имя : The.King.of.Staten.Island.2020.MVO.BDRip.2.90Gb.x264.mkv
Формат : Matroska
Версия формата : Version 4
Размер файла : 2, 90 Гбайт
Продолжительность : 2 ч. 17 м.
Общий поток : 3 022 Кбит/сек
Название фильма : Король Стейтен-Айленда / The King of Staten Island (2020)
Дата кодирования : UTC 2020-08-15 06:37:08
Программа кодирования : mkvmerge v47.0.0 ('Black Flag') 64-bit
Библиотека кодирования : libebml v1.3.10 + libmatroska v1.5.2
Обложка : Yes
Attachments : cover.jpg

Видео
Идентификатор : 1
Формат : AVC
Формат/Информация : Advanced Video Codec
Профиль формата : High@L4.1
Настройки формата : CABAC / 10 Ref Frames
Параметр CABAC формата : Да
Параметр RefFrames формата : 10 кадров
Идентификатор кодека : V_MPEG4/ISO/AVC
Продолжительность : 2 ч. 17 м.
Битрейт : 2 124 Кбит/сек
Ширина : 1 024 пикселя
Высота : 428 пикселей
Соотношение сторон : 2, 40:1
Режим частоты кадров : Постоянный
Частота кадров : 23, 976 кадра/сек
Цветовое пространство : YUV
Субдискретизация насыщенности : 4:2:0
Битовая глубина : 8 бит
Тип развёртки : Прогрессивная
Бит/(Пиксели*Кадры) : 0.202
Размер потока : 2, 04 Гбайт (70%)
Заголовок : #stillet
Библиотека кодирования : x264 core 152 r2851bm ba24899
Настройки программы : cabac=1 / ref=10 / deblock=1:-2:-2 / analyse=0x3:0x113 / me=umh / subme=11 / psy=1 / psy_rd=1.00:0.15 / mixed_ref=1 / me_range=32 / chroma_me=1 / trellis=2 / 8x8dct=1 / cqm=0 / deadzone=21, 11 / fast_pskip=0 / chroma_qp_offset=-3 / threads=8 / lookahead_threads=3 / sliced_threads=0 / nr=0 / decimate=0 / interlaced=0 / bluray_compat=0 / constrained_intra=0 / bframes=11 / b_pyramid=2 / b_adapt=2 / b_bias=0 / direct=3 / weightb=1 / open_gop=0 / weightp=2 / keyint=240 / keyint_min=23 / scenecut=40 / intra_refresh=0 / rc=2pass / mbtree=0 / bitrate=2124 / ratetol=1.0 / qcomp=0.60 / qpmin=0 / qpmax=69 / qpstep=4 / cplxblur=20.0 / qblur=0.5 / ip_ratio=1.40 / pb_ratio=1.30 / aq=1:1.00
Язык : English
Default : Да
Forced : Нет

Аудио #1
Идентификатор : 2
Формат : AC-3
Формат/Информация : Audio Coding 3
Коммерческое название : Dolby Digital
Идентификатор кодека : A_AC3
Продолжительность : 2 ч. 17 м.
Вид битрейта : Постоянный
Битрейт : 448 Кбит/сек
Каналы : 6 каналов
Channel layout : L R C LFE Ls Rs
Частота : 48, 0 КГц
Частота кадров : 31, 250 кадров/сек (1536 SPF)
Метод сжатия : С потерями
Размер потока : 440 Мбайт (15%)
Заголовок : MVO | HDRezka Studio
Язык : Russian
Service kind : Complete Main
Default : Да
Forced : Да

Аудио #2
Идентификатор : 3
Формат : AC-3
Формат/Информация : Audio Coding 3
Коммерческое название : Dolby Digital
Идентификатор кодека : A_AC3
Продолжительность : 2 ч. 17 м.
Вид битрейта : Постоянный
Битрейт : 448 Кбит/сек
Каналы : 6 каналов
Channel layout : L R C LFE Ls Rs
Частота : 48, 0 КГц
Частота кадров : 31, 250 кадров/сек (1536 SPF)
Метод сжатия : С потерями
Размер потока : 440 Мбайт (15%)
Заголовок : Original
Язык : English
Service kind : Complete Main
Default : Нет
Forced : Нет

Текст #1
Идентификатор : 4
Формат : UTF-8
Идентификатор кодека : S_TEXT/UTF8
Идентификатор кодека/Информация : UTF-8 Plain Text
Продолжительность : 2 ч. 11 м.
Битрейт : 177 бит/сек
Count of elements : 3354
Размер потока : 170 Кбайт (0%)
Заголовок : Full [FOCS]
Язык : Russian
Default : Нет
Forced : Нет

Текст #2
Идентификатор : 5
Формат : UTF-8
Идентификатор кодека : S_TEXT/UTF8
Идентификатор кодека/Информация : UTF-8 Plain Text
Продолжительность : 2 ч. 17 м.
Битрейт : 122 бит/сек
Count of elements : 3748
Размер потока : 123 Кбайт (0%)
Заголовок : SDH
Язык : English
Default : Нет
Forced : Нет

Меню
00:00:00.000 : en:Capítulo 01
00:07:59.770 : en:Capítulo 02
00:15:21.795 : en:Capítulo 03
00:21:31.665 : en:Capítulo 04
00:30:29.953 : en:Capítulo 05
00:35:49.772 : en:Capítulo 06
00:43:32.276 : en:Capítulo 07
00:51:07.439 : en:Capítulo 08
00:58:17.452 : en:Capítulo 09
01:06:46.669 : en:Capítulo 10
01:11:39.920 : en:Capítulo 11
01:16:35.924 : en:Capítulo 12
01:21:36.933 : en:Capítulo 13
01:29:12.096 : en:Capítulo 14
01:34:21.864 : en:Capítulo 15
01:41:33.295 : en:Capítulo 16
01:46:17.245 : en:Capítulo 17
01:56:30.233 : en:Capítulo 18
02:04:11.026 : en:Capítulo 19
02:11:48.859 : en:Capítulo 20

pb.wtf



Скачать Король Стейтен-Айленда через торрент https://i112.fastpic.ru/big/2020/0815/8e/b5e7f216fa8d2ebe92e9df9708bb9e8e.jpg Скачать фильм Король Стейтен-Айленда через торрент бесплантно в хорошем качестве Описание: 24-летний инфантил по имени Скотт живёт с мамой и младшей сестрой в нью-йоркском районе Стейтен-Айленд. С самого детства парень ... 10 10 2
Торрент: Зарегистрирован [2020-08-16 06:37] · скачан: 112 раз
Статус: √ проверено
Размер: 2.9 GB
Как cкачать? Как скачать Король Стейтен-Айленда через торрент | UTorrent

% Раздел Тема Автор DL S | L
Фильмы 2019-2020 [DVDrip, WEB-DLRip, HDrip] (DUB, MVO) [ 2.12 GB ] Король Стейтен-Айленда / The King of Staten Island [2020 BDRip] DUB Twi7ter Скачать
18 | 1
Фильмы 2019-2020 [DVDrip, WEB-DLRip, HDrip] (DUB, MVO) [ 1.46 GB ] Король Стейтен-Айленда / The King of Staten Island [2020 BDRip] DUB Twi7ter Скачать
17 | 1
Фильмы 2019-2020 [DVDrip, WEB-DLRip, HDrip] (DUB, MVO) [ 835 MB ] Король Стейтен-Айленда / The King of Staten Island [2020 HDRip ] coc900 Скачать
1 | 0
Фильмы 2019-2020 [DVDrip, WEB-DLRip, HDrip] (DUB, MVO) [ 2.12 GB ] Король Стейтен-Айленда / The King of Staten Island [2020 BDRip] DUB bober100 Скачать
4 | 0
Фильмы 2019-2020 [DVDrip, WEB-DLRip, HDrip] (DUB, MVO) [ 1.46 GB ] Король Стейтен-Айленда / The King of Staten Island [2020 BDRip] DUB bober100 Скачать
1 | 0
Фильмы [HD 720p, 1080p] (Хороший звук DUB, MVO) [ 20.9 GB ] Король Стейтен-Айленда / The King of Staten Island [2020 BDRip 1080p] DUB bober100 Скачать
3 | 0
Фильмы (Blu-ray, BD-Remux, HDDVD) [ 33.72 GB ] Король Стейтен-Айленда / The King of Staten Island [2020 BD Remux 1080p] MVO [HDRezka Studio] bober100 Скачать
1 | 0

28-11-2019 20:33  

Отключить всю рекламу на сайте

    Дорогой пользователь! Огромная просьба, поблагодарите релизера, оцените раздачу и оставьте свои комментарий, если Вы скачали Король Стейтен-Айленда через торрент бесплатно! Внесите свою лепту в развитие PiratBit!
    Комментировать посты могут только пользователи прошедшие не сложную регистрацию
    Показать сообщения:    

    Король Стейтен-Айленда через торрент
    Скачать бесплатно Король Стейтен-Айленда
    Король Стейтен-Айленда скачать торрент
    Король Стейтен-Айленда смотреть онлайн
    Cкачать фильм Король Стейтен-Айленда бесплатно
    Король Стейтен-Айленда скачать торрент в хорошем качестве
    Король Стейтен-Айленда смотреть онлайн бесплатно в хорошем качестве


    Вы не можете начинать темы
    Вы не можете отвечать на сообщения
    Вы не можете редактировать свои сообщения
    Вы не можете удалять свои сообщения
    Вы не можете голосовать в опросах
    Вы не можете прикреплять файлы к сообщениям
    Вы можете скачивать файлы