Доктор Стрэндж

Лицензия

Добыча

Дубляж

Дом дракона

1 сезон

Тор

Дубляж

В эфире

Дубляж

Там, где раки поют

MVO

Властелин колец

1 сезон

Ultimate

pack

Рекомендуем

30

Пиратка

ВАЖНО

ВАЖНО

Ghostwire

Пиратка

jed

RePack

nioh2

RePack

RDR2

RePack

NEED FOR SPEED™ PAYBACK

RePack

скачать торрент

Кинопоиск HD

Острые козырьки 6 сезон

6 сезон

FAR CRY 6

RePack

скачать торрент

Лицензия

скачать торрент

MVO

1

1 сезон

скачать торрент

1 сезон

скачать торрент

Лицензия

  

II / Два (Влада Сенькова) [2019, Драма, WEB-DLRip-AVC] [iTunes]

II через торрент pb.wtf

Размер: 1.09 GB | Добавлен: 2 года 3 мес. назад | Торрент скачан:133 раза
Смотреть онлайн | Скачать   

16-08-2020 07:35 II Скачать торрент  

II | Два
Год выпуска: 2019
Страна: Беларусь
Выпущено: АРТ Корпорейшн
Жанр: Драма
Продолжительность: 01:00:13
Перевод: Не требуется | iTunes
Субтитры: отсутствуют

Режиссер: Влада Сенькова

rating

В ролях: Алина Юхневич, Алексей Вайнилович, Илария Шашко, Александр Лесько, Светлана Тимохина, Наталия Подвицкая, Ирина Корниевич, Анна Анисенко, Роман Подоляко, Светлана Соколовская

Описание: Герои фильма, 16-летние Настя, Саша и Кристина, учатся вместе в десятом классе и живут обыкновенной жизнью подростков: уроки, репетиторы, походы в кино, вечеринки. В школе царит суровая дисциплина и трудно быть не таким, как все. Но однажды этот маленький мир потрясет новость, из-за которой все страхи и предрассудки вылезут наружу.

Качество: WEB-DLRip-AVC
Формат: MKV

Видео: 1024x428 (2, 40:1), 24 fps, MPEG-4 AVC, 2396 Кbps avg, 0.228 bit/pixel
Аудио: 48.0 kHz, AC3 Dolby Digital, 2/0 (L,R) ch, ~ 192 kbps
скриншот  скриншот  скриншот  скриншот  скриншот  

Общее
Уникальный идентификатор: 323205515024141094066213567490335846686 (0xF3271E327849D1C70BE0C2815092311E)
Полное имя: II_2019_WEB-DL-DLRip.1.09Gb.x264.mkv
Формат: Matroska
Версия формата: Version 4
Размер файла: 1, 09 Гбайт
Продолжительность: 1 ч. 0 м.
Общий поток: 2 587 Кбит/сек
Название фильма: II (2019)
Дата кодирования: UTC 2020-08-15 08:51:49
Программа кодирования: mkvmerge v47.0.0 ('Black Flag') 64-bit
Библиотека кодирования: libebml v1.3.10 + libmatroska v1.5.2
Обложка: Yes
Attachments: cover.jpg

Видео
Идентификатор: 1
Формат: AVC
Формат/Информация: Advanced Video Codec
Профиль формата: [email protected]
Настройки формата: CABAC / 10 Ref Frames
Параметр CABAC формата: Да
Параметр RefFrames формата: 10 кадров
Идентификатор кодека: V_MPEG4/ISO/AVC
Продолжительность: 1 ч. 0 м.
Битрейт: 2 396 Кбит/сек
Ширина: 1 024 пикселя
Высота: 428 пикселей
Соотношение сторон: 2, 40:1
Режим частоты кадров: Постоянный
Частота кадров: 24, 000 кадра/сек
Цветовое пространство: YUV
Субдискретизация насыщенности: 4:2:0
Битовая глубина: 8 бит
Тип развёртки: Прогрессивная
Бит/(Пиксели*Кадры): 0.228
Размер потока: 1, 01 Гбайт (92%)
Заголовок: #stillet
Библиотека кодирования: x264 core 152 r2851bm ba24899
Настройки программы: cabac=1 / ref=10 / deblock=1:-2:-2 / analyse=0x3:0x113 / me=umh / subme=11 / psy=1 / psy_rd=1.00:0.15 / mixed_ref=1 / me_range=32 / chroma_me=1 / trellis=2 / 8x8dct=1 / cqm=0 / deadzone=21, 11 / fast_pskip=0 / chroma_qp_offset=-3 / threads=8 / lookahead_threads=3 / sliced_threads=0 / nr=0 / decimate=0 / interlaced=0 / bluray_compat=0 / constrained_intra=0 / bframes=11 / b_pyramid=2 / b_adapt=2 / b_bias=0 / direct=3 / weightb=1 / open_gop=0 / weightp=2 / keyint=240 / keyint_min=23 / scenecut=40 / intra_refresh=0 / rc=2pass / mbtree=0 / bitrate=2396 / ratetol=1.0 / qcomp=0.60 / qpmin=0 / qpmax=69 / qpstep=4 / cplxblur=20.0 / qblur=0.5 / ip_ratio=1.40 / pb_ratio=1.30 / aq=1:1.00
Язык: English
Default: Да
Forced: Нет

Аудио
Идентификатор: 2
Формат: AC-3
Формат/Информация: Audio Coding 3
Коммерческое название: Dolby Digital
Идентификатор кодека: A_AC3
Продолжительность: 1 ч. 0 м.
Вид битрейта: Постоянный
Битрейт: 192 Кбит/сек
Каналы: 2 канала
Channel layout: L R
Частота: 48, 0 КГц
Частота кадров: 31, 250 кадров/сек (1536 SPF)
Метод сжатия: С потерями
Размер потока: 82, 7 Мбайт (7%)
Заголовок: iTunes
Язык: Russian
Service kind: Complete Main
Default: Да
Forced: Нет

Меню
00:00:00.000: en:Глава 1
00:03:15.791: en:Глава 2
00:08:19.166: en:Глава 3
00:16:04.457: en:Глава 4
00:23:21.290: en:Глава 5
00:30:33.331: en:Глава 6
00:34:59.956: en:Глава 7
00:42:50.372: en:Глава 8
00:48:01.288: en:Глава 9
00:55:45.496: en:Глава 10




Скачать II через торрент https://d.radikal.ru/d40/2008/42/31c66ff34507.png Скачать, смотреть онлайн II бесплантно в хорошем качестве Описание: Герои фильма, 16-летние Настя, Саша и Кристина, учатся вместе в десятом классе и живут обыкновенной жизнью подростков: уроки, ... 10 10 5
Торрент: Зарегистрирован [2020-08-16 07:35] · скачан: 133 раз
Статус: √ проверено
Размер: 1.09 GB
Как cкачать? Как скачать II через торрент | UTorrent

% Раздел Тема Автор DL S | L
Наши фильмы 2018-2019 [ 743 MB ] II / Два | iTunes | DLRip bober100 Скачать
1 | 0
T Наши фильмы (HD, WEB-DL 720p, 1080p) [ 1.97 GB ] II / Два | iTunes | 1080p bober100 Скачать
1 | 0
Наши фильмы 2018-2019 [ 1.09 GB ] II / Два | iTunes | DLRip bober100 Скачать
1 | 0

28-11-2019 20:33  


Отключить вcю реклaмy на сайте, в т.ч. и в плеере онлайн просмотра!

    Дорогой пользователь! Огромная просьба, поблагодарите релизера, оцените раздачу и оставьте свои комментарий, если Вы скачали II через торрент бесплатно!!
    Комментировать посты могут только пользователи прошедшие не сложную регистрацию
    Показать сообщения:    


    II через торрент
    Скачать бесплатно II
    II скачать торрент
    II смотреть онлайн
    Cкачать фильм II бесплатно
    II скачать торрент в хорошем качестве
    II смотреть онлайн бесплатно в хорошем качестве
    Вы не можете начинать темы
    Вы не можете отвечать на сообщения
    Вы не можете редактировать свои сообщения
    Вы не можете удалять свои сообщения
    Вы не можете голосовать в опросах
    Вы не можете прикреплять файлы к сообщениям
    Вы можете скачивать файлы
    II / Два [2019, Драма, WEB-DLRip-AVC] [iTunes] смотреть онлайн, скачать торрент picoco.icu