Ссылка на приватное зеркало нашего сайта всего за 1$. Внимание количество ограничено!!!

2 сезон

iTunes

1 сезон

1

iTunes

iTunes

iTunes

1 сезон

RePack

30

ИГРА 18+

pack

ВАЖНО

!!Акция!!

Alien_RageХит недели

RePack

MK11
pack

Забери бонус

RePack

jed

!!Акция!!

Alien_Rage

RePack

fifa19

RePack

Assassins Creed: Odyssey

RePack

NEED FOR SPEED™ PAYBACK

4 сезон

9 сезон

Бесстыжие 9 сезон

Все сериалы

все сериалы на PB.wtf

RePack

FAR CRY 5
  

Солнечный ноябрь / Сезон: 1 / Серии: 1-16 из 16 (Александр Итыгилов) [2019, Мелодрама, WEB-DL 720p] pb.wtf

Солнечный ноябрь через торрент pb.wtf

Размер: 19.14 GB | Добавлен: 2 мес. 8 д. назад | Торрент скачан:6 раз
Скачать  

16-08-2020 09:58 Солнечный ноябрь Скачать торрент  

Солнечный ноябрь
Год выпуска: 2019
Страна: Украина
Выпущено: "УПС"
Жанр: Мелодрама
Продолжительность: ~ 00:47:00
Перевод: Не требуется
Субтитры: отсутствуют

Режиссер: Александр Итыгилов



В ролях: Ирина Гришак, Кирилл Дыцевич, Анна Гуляева, Марина Митрофанова, Дмитрий Белякин, Ирина Мельник, Сергей Фролов, Елена Хохлаткина, Даниил Мирешкин, Елена Яблочная, Сергей Дзялик, Оксана Архангельская, Фёдор Гуринец

Описание: Главные герои картины – брат и сестра Нина и Кирилл Петровские из благополучной обеспеченной семьи, в которой царят любовь и взаимопонимание. Молодые люди очень близки, их отношения наполнены нежностью и юмором. Кирилл – лучший ученик гимназии, он хорошо рисует, популярен среди сверстников и особенно среди сверстниц. Нина же не хватает звезд с неба – она прилежная ученица, добра, мила, обаятельна, но и только. На глазах у зрителей главная героиня из неуверенной в себе, пассивной и не слишком удачливой девочки превратится в сильную деятельную личность, энергия которой объединяет и примиряет совершенно разных людей. Пройдя через серьезные испытания, потеряв и вновь обретя любовь своей жизни, победив страшную болезнь, Нина становится источником надежды и света не только для своей семьи и друзей, но и для всех тех, кто нуждается в ее помощи и поддержке.

Качество: WEB-DL 720p
Формат: MKV

Видео: MPEG-4 AVC, ~ 3500 Кбит/с, 1280x720, 25 кадр/с
Аудио: 48.0 kHz, AC3 Dolby Digital, 2/0 (L,R) ch, ~ 192 kbps
скриншот  скриншот  скриншот  скриншот  скриншот  

General
Unique ID : 112915925926601416405668612093281512791 (0x54F2D0F8A52E756BA2DF683F06C72D57)
Complete name : C:01.Солнечный ноябрь.(2019).WEB-DL (720p).by.Nicodem.Files-x.mkv
Format : Matroska
File size : 1.20 GiB
Duration : 45mn 30s
Overall bit rate : 3 767 Kbps
Writing application : Lavf56.36.100
Writing library : Lavf56.36.100

Video
ID : 1
Format : AVC
Format/Info : Advanced Video Codec
Format profile : Main@L3.1
Format settings, CABAC : Yes
Format settings, ReFrames : 2 frames
Codec ID : V_MPEG4/ISO/AVC
Duration : 45mn 30s
Bit rate : 3 500 Kbps
Width : 1 280 pixels
Height : 720 pixels
Display aspect ratio : 16:9
Frame rate mode : Variable
Frame rate : 25.000 fps
Color space : YUV
Chroma subsampling : 4:2:0
Bit depth : 8 bits
Scan type : Progressive
Bits/(Pixel*Frame) : 0.152
Stream size : 1.11 GiB (93%)
Language : English

Audio
ID : 2
Format : AC-3
Format/Info : Audio Coding 3
Mode extension : CM (complete main)
Codec ID : A_AC3
Duration : 45mn 30s
Bit rate mode : Constant
Bit rate : 192 Kbps
Channel(s) : 2 channels
Channel positions : Front: L R
Sampling rate : 48.0 KHz
Bit depth : 16 bits
Compression mode : Lossy
Stream size : 62.5 MiB (5%)
Language : English / un

pb.wtf



Скачать Солнечный ноябрь через торрент https://i112.fastpic.ru/big/2020/0816/4d/ba6f2a20bcb8835c398c7b54dfed2c4d.jpg Скачать фильм Солнечный ноябрь через торрент бесплантно в хорошем качестве Описание: Главные герои картины – брат и сестра Нина и Кирилл Петровские из благополучной обеспеченной семьи, в которой царят любовь и ... 10 10 2
Торрент: Зарегистрирован [2020-08-16 09:58] · скачан: 6 раз
Статус: √ проверено
Размер: 19.14 GB
Как cкачать? Как скачать Солнечный ноябрь через торрент | qTorrent

% Раздел Тема Автор DL S | L
Наши сериалы [ 9.1 GB ] Солнечный ноябрь / Сезон: 1 / Серии: 1-16 из 16 [2019 Мело WEB-DLRip-AVC] bober100 Скачать
1 | 0
Наши сериалы [ 26.91 GB ] Солнечный ноябрь / Сезон: 1 / Серии: 1-16 из 16 [2019 Мело WEB-DL 1080p] bober100 Скачать
1 | 0
Наши сериалы [ 9.18 GB ] Солнечный ноябрь / Сезон: 1 / Серии: 1-16 из 16 [2019 Мело WEB-DLRip] bober100 Скачать
1 | 0

28-11-2019 20:33  

Отключить всю рекламу на сайте

    Дорогой пользователь! Огромная просьба, поблагодарите релизера, оцените раздачу и оставьте свои комментарий, если Вы скачали Солнечный ноябрь через торрент бесплатно! Внесите свою лепту в развитие PiratBit!
    Комментировать посты могут только пользователи прошедшие не сложную регистрацию
    Показать сообщения:    

    Солнечный ноябрь через торрент
    Скачать бесплатно Солнечный ноябрь
    Солнечный ноябрь скачать торрент
    Солнечный ноябрь смотреть онлайн
    Cкачать фильм Солнечный ноябрь бесплатно
    Солнечный ноябрь скачать торрент в хорошем качестве
    Солнечный ноябрь смотреть онлайн бесплатно в хорошем качестве


    Вы не можете начинать темы
    Вы не можете отвечать на сообщения
    Вы не можете редактировать свои сообщения
    Вы не можете удалять свои сообщения
    Вы не можете голосовать в опросах
    Вы не можете прикреплять файлы к сообщениям
    Вы можете скачивать файлы