Присоединяйтесь к нам в Telegram!, здесь всегда актуальный адрес сайта, оперативная поддержка и многое другое!!

>

5.9

iTunes

7.4

iTunes

9.4

1 сезон

1

7.4

2 сезон

7.2

iTunes

7.3

1 сезон

13

6.1

iTunes

8.3

GOG

30

ULTIMATE

pack

9.9

Лицензия

ВАЖНО

ИГРА 18+

pack

7.3

RePack

MK11

7.7

RePack

jed

7.8

RePack

fifa19

8.5

RePack

RDR2

RePack

NEED FOR SPEED™ PAYBACK

5 сезон

9 сезон

Бесстыжие 9 сезон

Все сериалы

все сериалы на PB.wtf

RePack

FAR CRY 5

Anonymous, доброе утро, мы катастрофически не успеваем собрать деньги на оплату серверов, помогите нам пожалуйста 5,10,15р., для нас важна любая помощь . В качестве благодарности мы отключим Вам всю рекламу на сайте (укажите свой ник в строку Ваше имя)!

×
  
Magnet ссылка

Кролик Питер 2 / Peter Rabbit 2: The Runaway (Уилл Глак) [2021, мультфильм, фэнтези, комедия, приключения, семейный, BDRip-AVC] DUB [Лицензия Blu-Ray 4K] pb.wtf

Кролик Питер 2 через торрент pb.wtf

Размер: 2.33 GB | Добавлен: 3 мес. 26 д. назад | Торрент скачан:34 раза
Смотреть онлайн Кролик Питер 2 | Скачать    Ребята, помогите собрать деньги на оплату серверов!!!

16-08-2020 10:14 Кролик Питер 2 Скачать торрент  

Кролик Питер 2 | Peter Rabbit 2: The Runaway
Год выпуска: 2021
Страна: США, Австралия, Индия
Выпущено: 2.0 Entertainment, Animal Logic, Columbia Pictures Corporation, MRC Film, Olive Bridge Entertainment
Жанр: мультфильм, фэнтези, комедия, приключения, семейный
Продолжительность: 01:33:22
Перевод: Дублированный | Лицензия Blu-Ray 4K
Субтитры: Русские, английские

Режиссер: Уилл Глак

rating

В ролях: Донал Глисон, Роуз Бирн, Джеймс Корден, Дэвид Ойелоуо, Тейлор Фергюсон, Энди Гэтергуд, Нивин Ханна, Меган Смарт, Роуэн Чэпман, Далип Сондхи

Описание: Продолжение истории маленького и непоседливого кролика по имени Питер. Беатрис, Томас и крольчата, наконец, находят общий язык и начинают спокойную и размеренную жизнь за городом. Однако Питеру это совсем не по нраву: его мятежная душа требует приключений, и он отправляется на их поиски в большой город, туда, где его проделки уж точно оценят по достоинству. Тем временем, члены его большой дружной семьи, рискуя жизнью, отправляются вслед за Питером, чтобы вернуть его домой, и теперь беглецу предстоит решить, что же для него важнее всего.

Качество: BDRip-AVC
Формат: MKV

Видео: MPEG-4 AVC, 2669 Кбит/с, 1024x428, 23.976 Кадр/с
Аудио: AC3, 48 kHz, 6 ch, ~448.00 kbps avg | русский |
Аудио: AC3, 48 kHz, 6 ch, ~448.00 kbps avg | английский |
скриншот  скриншот  скриншот  скриншот  скриншот  

Код:

x264

x264 [info]: frame I:1535 Avg QP:13.45 size:107223
x264 [info]: frame P:33960 Avg QP:17.33 size: 30035
x264 [info]: frame B:98833 Avg QP:21.45 size: 6930
x264 [info]: consecutive B-frames: 3.9% 4.0% 8.9% 42.0% 15.1% 18.6% 2.5% 1.9% 0.3% 2.6% 0.1%
x264 [info]: mb I I16..4: 6.0% 59.2% 34.9%
x264 [info]: mb P I16..4: 0.6% 10.2% 1.8% P16..4: 28.6% 31.1% 16.2% 4.5% 1.0% skip: 6.0%
x264 [info]: mb B I16..4: 0.1% 1.5% 0.2% B16..8: 32.2% 18.5% 3.5% direct: 4.1% skip:39.9% L0:40.5% L1:41.2% BI:18.3%
x264 [info]: 8x8 transform intra:77.2% inter:52.9%
x264 [info]: direct mvs spatial:96.9% temporal:3.1%
x264 [info]: coded y,uvDC,uvAC intra: 92.9% 88.2% 70.4% inter: 23.5% 20.5% 13.6%
x264 [info]: i16 v,h,dc,p: 14% 16% 7% 63%
x264 [info]: i8 v,h,dc,ddl,ddr,vr,hd,vl,hu: 10% 12% 6% 9% 12% 12% 13% 12% 14%
x264 [info]: i4 v,h,dc,ddl,ddr,vr,hd,vl,hu: 14% 12% 5% 8% 14% 12% 13% 10% 12%
x264 [info]: i8c dc,h,v,p: 40% 25% 17% 18%
x264 [info]: Weighted P-Frames: Y:3.2% UV:1.1%
x264 [info]: ref P L0: 50.3% 13.1% 14.1% 6.4% 4.3% 3.7% 2.8% 1.9% 1.5% 1.7% 0.2% 0.0%
x264 [info]: ref B L0: 77.5% 9.9% 5.2% 2.2% 1.8% 1.3% 1.2% 0.5% 0.3%
x264 [info]: ref B L1: 93.2% 6.8%
x264 [info]: kb/s:2669.42

Общее
Уникальный идентификатор : 245738705335895240933325207774053592871 (0xB8DF8D98A035CBB99C3146B8D71CEF27)
Полное имя : D:ЗагрузкиPeter.Rabbit.2.2021.x264.BDRip.(AVC).OlLanDGroup.mkv
Формат : Matroska
Версия формата : Version 4 / Version 2
Размер файла : 2,33 Гбайт
Продолжительность : 1 ч. 33 м.
Общий поток : 3568 Кбит/сек
Название фильма : Кролик Питер 2.2021.Rip by: ollan
Дата кодирования : UTC 2021-08-03 22:12:10
Программа кодирования : mkvmerge v6.5.0 ('Isn't she lovely') built on Oct 20 2013 12:50:05
Библиотека кодирования : libebml v1.3.0 + libmatroska v1.4.1
Обложка : Yes
Attachments : Cover - Peter.Rabbit.2.png

Видео
Идентификатор : 1
Формат : AVC
Формат/Информация : Advanced Video Codec
Профиль формата : High@L4.1
Настройки формата : CABAC / 10 Ref Frames
Параметр CABAC формата : Да
Параметр ReFrames формата : 10 кадров
Идентификатор кодека : V_MPEG4/ISO/AVC
Продолжительность : 1 ч. 33 м.
Битрейт : 2669 Кбит/сек
Ширина : 1024 пикселя
Высота : 428 пикселей
Соотношение сторон : 2,40:1
Режим частоты кадров : Постоянный
Частота кадров : 23,976 (24000/1001) кадра/сек
Цветовое пространство : YUV
Субдискретизация насыщенности : 4:2:0
Битовая глубина : 8 бит
Тип развёртки : Прогрессивная
Бит/(Пиксели*Кадры) : 0.254
Размер потока : 1,70 Гбайт (73%)
Библиотека кодирования : x264 core 146 r2538 121396c
Настройки программы : cabac=1 / ref=10 / deblock=1:-3:-3 / analyse=0x3:0x133 / me=umh / subme=11 / psy=1 / psy_rd=0.95:0.05 / mixed_ref=1 / me_range=64 / chroma_me=1 / trellis=2 / 8x8dct=1 / cqm=0 / deadzone=21,11 / fast_pskip=0 / chroma_qp_offset=-3 / threads=12 / lookahead_threads=3 / sliced_threads=0 / nr=0 / decimate=0 / interlaced=0 / bluray_compat=0 / constrained_intra=0 / bframes=10 / b_pyramid=2 / b_adapt=2 / b_bias=0 / direct=3 / weightb=1 / open_gop=0 / weightp=2 / keyint=240 / keyint_min=23 / scenecut=40 / intra_refresh=0 / rc_lookahead=50 / rc=2pass / mbtree=1 / bitrate=2669 / ratetol=1.0 / qcomp=0.60 / qpmin=0 / qpmax=69 / qpstep=4 / cplxblur=20.0 / qblur=0.5 / vbv_maxrate=50000 / vbv_bufsize=62500 / nal_hrd=none / filler=0 / ip_ratio=1.40 / aq=1:1.00
Язык : English
Default : Да
Forced : Нет

Аудио #1
Идентификатор : 2
Формат : AC-3
Формат/Информация : Audio Coding 3
Идентификатор кодека : A_AC3
Продолжительность : 1 ч. 33 м.
Вид битрейта : Постоянный
Битрейт : 448 Кбит/сек
Каналы : 6 каналов
Расположение каналов : Front: L C R, Side: L R, LFE
Частота : 48,0 КГц
Частота кадров : 31,250 кадров/сек (1536 SPF)
Битовая глубина : 16 бит
Метод сжатия : С потерями
Размер потока : 299 Мбайт (13%)
Заголовок : Лицензия
Язык : Russian
Service kind : Complete Main
Default : Да
Forced : Нет

Аудио #2
Идентификатор : 3
Формат : AC-3
Формат/Информация : Audio Coding 3
Идентификатор кодека : A_AC3
Продолжительность : 1 ч. 33 м.
Вид битрейта : Постоянный
Битрейт : 448 Кбит/сек
Каналы : 6 каналов
Расположение каналов : Front: L C R, Side: L R, LFE
Частота : 48,0 КГц
Частота кадров : 31,250 кадров/сек (1536 SPF)
Битовая глубина : 16 бит
Метод сжатия : С потерями
Размер потока : 299 Мбайт (13%)
Язык : English
Service kind : Complete Main
Default : Нет
Forced : Нет

Текст #1
Идентификатор : 4
Формат : UTF-8
Идентификатор кодека : S_TEXT/UTF8
Идентификатор кодека/Информация : UTF-8 Plain Text
Заголовок : Forced
Язык : Russian
Default : Да
Forced : Нет

Текст #2
Идентификатор : 5
Формат : UTF-8
Идентификатор кодека : S_TEXT/UTF8
Идентификатор кодека/Информация : UTF-8 Plain Text
Заголовок : Full
Язык : Russian
Default : Нет
Forced : Нет

Текст #3
Идентификатор : 6
Формат : UTF-8
Идентификатор кодека : S_TEXT/UTF8
Идентификатор кодека/Информация : UTF-8 Plain Text
Заголовок : Full
Язык : English
Default : Нет
Forced : Нет

Меню
00:00:00.000 : en:Chapter 01
00:05:31.331 : en:Chapter 02
00:10:13.779 : en:Chapter 03
00:14:34.540 : en:Chapter 04
00:19:46.643 : en:Chapter 05
00:26:22.330 : en:Chapter 06
00:31:54.662 : en:Chapter 07
00:38:47.033 : en:Chapter 08
00:46:33.540 : en:Chapter 09
00:50:49.796 : en:Chapter 10
00:56:08.156 : en:Chapter 11
01:05:44.941 : en:Chapter 12
01:08:21.764 : en:Chapter 13
01:12:51.367 : en:Chapter 14
01:16:07.312 : en:Chapter 15
01:19:08.952 : en:Chapter 16
pb.wtf



Скачать Кролик Питер 2 через торрент https://i115.fastpic.org/big/2021/0804/4b/4142c3882f8c4f43a91a2a32750cb74b.jpg Скачать, смотреть онлайн Кролик Питер 2 бесплантно в хорошем качестве Описание: Продолжение истории маленького и непоседливого кролика по имени Питер. Беатрис, Томас и крольчата, наконец, находят общий язык и ... 10 10 7
Торрент: Зарегистрирован [2021-08-04 05:24] · скачан: 34 раз
Статус: √ проверено
Размер: 2.33 GB
Как cкачать? Как скачать Кролик Питер 2 через торрент | UTorrent

% Раздел Тема Автор DL S | L
Фильмы 2021 [DVDrip, WEB-DLRip, HDrip] (DUB, MVO) [ 1.46 GB ] Кролик Питер 2 / Peter Rabbit 2: The Runaway [2021 мультфильм WEB-DLRip] Dub Twi7ter Скачать
11 | 0
Фильмы 2021 [DVDrip, WEB-DLRip, HDrip] (DUB, MVO) [ 1.46 GB ] Кролик Питер 2 / Peter Rabbit 2: The Runaway [2021 мультфильм BDRip] - [] Twi7ter Скачать
38 | 1
Фильмы 2021 [DVDrip, WEB-DLRip, HDrip] (DUB, MVO) [ 2.19 GB ] Кролик Питер 2 / Peter Rabbit 2: The Runaway [2021 Мультфильм HDRip-AVC] DUB [] от MediaBit Lithuania Скачать
1 | 0
Фильмы 2021 [DVDrip, WEB-DLRip, HDrip] (DUB, MVO) [ 1.46 GB ] Кролик Питер 2 / Peter Rabbit 2: The Runaway [2021 мультфильм BDRip] DUB [ Blu-Ray 4K] bober100 Скачать
4 | 0
Фильмы 2021 [DVDrip, WEB-DLRip, HDrip] (DUB, MVO) [ 746 MB ] Кролик Питер 2 / Peter Rabbit 2: The Runaway [2021 мультфильм BDRip] DUB [ Blu-Ray 4K] bober100 Скачать
1 | 0
Фильмы (Blu-ray, BD-Remux, HDDVD) [ 17.93 GB ] Кролик Питер 2 / Peter Rabbit 2: The Runaway [2021 мультфильм BD Remux 1080p] DUB [ Blu-Ray 4K] bober100 Скачать
3 | 0
Фильмы [HD 720p, 1080p] (Хороший звук DUB, MVO) [ 3.53 GB ] Кролик Питер 2 / Peter Rabbit 2: The Runaway [2021 мультфильм BDRip 720p] DUB [ Blu-Ray 4K] bober100 Скачать
4 | 0

28-11-2019 20:33  

Отключить всю рекламу на сайте

    Дорогой пользователь! Огромная просьба, поблагодарите релизера, оцените раздачу и оставьте свои комментарий, если Вы скачали Кролик Питер 2 через торрент бесплатно!
    Комментировать посты могут только пользователи прошедшие не сложную регистрацию
    Показать сообщения:    

    Кролик Питер 2 через торрент
    Скачать бесплатно Кролик Питер 2
    Кролик Питер 2 скачать торрент
    Кролик Питер 2 смотреть онлайн
    Cкачать фильм Кролик Питер 2 бесплатно
    Кролик Питер 2 скачать торрент в хорошем качестве
    Кролик Питер 2 смотреть онлайн бесплатно в хорошем качестве


    Вы не можете начинать темы
    Вы не можете отвечать на сообщения
    Вы не можете редактировать свои сообщения
    Вы не можете удалять свои сообщения
    Вы не можете голосовать в опросах
    Вы не можете прикреплять файлы к сообщениям
    Вы можете скачивать файлы