Лицензия

MVO

1

1 сезон

Лицензия

Лицензия

13

MVO

1 сезон

Deluxe Edition

pack

Рекомендуем

30

Repack

ВАЖНО

ВАЖНО

Ghostwire

RePack

jed

RePack

fifa19

RePack

RDR2

RePack

NEED FOR SPEED™ PAYBACK

RePack

Кинопоиск HD

 Острые козырьки 6 сезон

6 сезон

FAR CRY 6

RePack

Лицензия

MVO

1

1 сезон

1 сезон

Лицензия

  

Звонарь / Сезон: 2 / Серии: 1-16 из 16 (Кирилл Капица) [2020, Детектив, криминал, WEB-DL 720p]

Звонарь через торрент pb.wtf

Размер: 10.74 GB | Добавлен: 2 года назад | Торрент скачан:10 раз
Смотреть онлайн Звонарь | Скачать   

18-08-2020 02:59 Звонарь Скачать торрент  

Звонарь
Год выпуска: 2020
Страна: Украина
Выпущено: Гольфстрим
Жанр: Детектив, криминал
Продолжительность: ~ 00:48:00
Перевод: Не требуется
Субтитры: отсутствуют

Режиссер: Кирилл Капица



В ролях: Михаил Шамигулов, Глеб Мацибора, Инна Мирошниченко, Анастасия Чепелюк, Алексей Нагрудный, Евгений Авдеенко, Наталия Бабенко, Артем Алексеев, Александр Зиневич, Сергей Калантай

Описание: Главного героя снова ждут громкие расследования — после разоблачения жестокого преступника на оперативника Звонцова начнется настоящая охота. Желающие отомстить просто выстроятся в очередь. Вдобавок Звонарь начнет подозревать, что его новый руководитель нечист на руку, а бывшая девушка инициирует его служебную проверку и отстранение от работы.

Качество: WEB-DL 720p
Формат: MKV

Видео: MPEG-4 AVC, ~ 1743 Кбит/с, 1280x720, 25 кадр/с
Аудио: 48.0 kHz, AC3 Dolby Digital, 2/0 (L,R) ch, ~ 192 kbps
скриншот  скриншот  скриншот  скриншот  скриншот  

General
Unique ID : 136821540243742578031768046464609659473 (0x66EEDEC17253B690597422F47E69AA51)
Complete name : C:25.Звонарь.s02.E01.(2020).WEB-DL (720p).by.Nicodem.Files-x.mkv
Format : Matroska
File size : 707 MiB
Duration : 50mn 3s
Overall bit rate : 1 975 Kbps
Writing application : Lavf56.36.100
Writing library : Lavf56.36.100

Video
ID : 1
Format : AVC
Format/Info : Advanced Video Codec
Format profile : [email protected]
Format settings, CABAC : Yes
Format settings, ReFrames : 2 frames
Codec ID : V_MPEG4/ISO/AVC
Duration : 50mn 3s
Bit rate mode : Variable
Bit rate : 1 743 Kbps
Maximum bit rate : 2 000 Kbps
Width : 1 280 pixels
Height : 720 pixels
Display aspect ratio : 16:9
Frame rate : 25.000 fps
Color space : YUV
Chroma subsampling : 4:2:0
Bit depth : 8 bits
Scan type : Progressive
Bits/(Pixel*Frame) : 0.076
Stream size : 624 MiB (88%)
Language : English

Audio
ID : 2
Format : AC-3
Format/Info : Audio Coding 3
Mode extension : CM (complete main)
Codec ID : A_AC3
Duration : 50mn 3s
Bit rate mode : Constant
Bit rate : 192 Kbps
Channel(s) : 2 channels
Channel positions : Front: L R
Sampling rate : 48.0 KHz
Bit depth : 16 bits
Compression mode : Lossy
Delay relative to video : 1mn 5s
Stream size : 68.7 MiB (10%)
Language : English / un

Внимание! Раздача ведётся путём добавления новых серий; при каждом добавлении создfётся новый торрент. Чтобы начать докачку новой серии, пользователям необходимо сделать следующее: (1) остановить скачивание, (2) удалить старый торрент у себя из клиента (старые серии удалять не надо), (3) скачать новый торрент и запустить его у себя в клиенте вместо старого, при этом указать клиенту путь в старую папку куда и должно происходить скачивание новых серий.

Ваш клиент при этом должен произвести хеширование (проверку) старой папки (если не производит сам - помогите ему сделать это), и будет докачивать только те серии которых у вас ещё нет. Старые серии при этом не удаляются, а продолжают раздаваться!

Eсли вы уже удалили старые серии, то предотвратить повторную закачку старых серий можно, отжав галочку в соответсвующих местах при запуске нового торрента.



Скачать Звонарь через торрент https://i112.fastpic.ru/big/2020/0828/31/9e58d423d5a119c2e71f2054066daa31.jpg Скачать, смотреть онлайн Звонарь бесплантно в хорошем качестве Описание: Главного героя снова ждут громкие расследования — после разоблачения жестокого преступника на оперативника Звонцова начнется ... 7.8 10 5
Торрент: Зарегистрирован [2020-09-11 01:04] · скачан: 10 раз
Статус: √ проверено
Размер: 10.74 GB
Как cкачать? Как скачать Звонарь через торрент | UTorrent

% Раздел Тема Автор DL S | L
Наши сериалы [ 9.79 GB ] Звонарь / Сезон: 2 / Серии: 1-16 из 16 | | DLRip-AVC bober100 Скачать
1 | 0
Наши сериалы [ 9.86 GB ] Звонарь / Сезон: 2 / Серии: 1-16 из 16 | | DLRip bober100 Скачать
1 | 0
Наши сериалы [ 21.79 GB ] Звонарь / Сезон: 1 / Серии: 1-24 из 24 | | 720p bober100 Скачать
1 | 0
Наши сериалы [ 14.31 GB ] Звонарь / Звонар / Сезон: 1 / Серии: 1-24 из 24 | | WEBRip-AVC killermax2013 Скачать
1 | 0

28-11-2019 20:33  

Отключить вcю реклaмy на сайте

    Дорогой пользователь! Огромная просьба, поблагодарите релизера, оцените раздачу и оставьте свои комментарий, если Вы скачали Звонарь через торрент бесплатно!!
    Комментировать посты могут только пользователи прошедшие не сложную регистрацию
    Показать сообщения:    


    Звонарь через торрент
    Скачать бесплатно Звонарь
    Звонарь скачать торрент
    Звонарь смотреть онлайн
    Cкачать фильм Звонарь бесплатно
    Звонарь скачать торрент в хорошем качестве
    Звонарь смотреть онлайн бесплатно в хорошем качестве
    Вы не можете начинать темы
    Вы не можете отвечать на сообщения
    Вы не можете редактировать свои сообщения
    Вы не можете удалять свои сообщения
    Вы не можете голосовать в опросах
    Вы не можете прикреплять файлы к сообщениям
    Вы можете скачивать файлы