Ссылка на приватное зеркало нашего сайта всего за 1$. Внимание количество ограничено!!!

2 сезон

iTunes

1 сезон

1

2 сезон

2 сезон

iTunes

1 сезон

RePack

30

Новинка

ВАЖНО

ИГРА 18+

pack

RePack

MK11
pack

Забери бонус

RePack

jed

!!Акция!!

Alien_Rage

RePack

fifa19

RePack

Assassins Creed: Odyssey

RePack

NEED FOR SPEED™ PAYBACK

4 сезон

9 сезон

Бесстыжие 9 сезон

Все сериалы

все сериалы на PB.wtf

RePack

FAR CRY 5
  

Черная дыра / Кромешная тьма / Pitch Black (Дэвид Туи) [2000, Ужасы, фантастика, триллер, боевик, приключения, UHD BDRemux 2160p, (Dolby Vision TV)] [Режиссёрская версия] DUB pb.wtf

Черная дыра через торрент pb.wtf

Раздают: 2 [ 997 KB/s ]
Размер: 53.51 GB | Добавлен: 3 мес. 16 д. назад | Торрент скачан:25 раз
Скачать  

18-08-2020 03:48 Черная дыра Скачать торрент  

Черная дыра | Кромешная тьма | Pitch Black
Год выпуска: 2000
Страна: США
Студия: Interscope Communications, PolyGram Filmed Entertainment
Жанр: Ужасы, фантастика, триллер, боевик, приключения
Продолжительность: 01:51:47
Перевод(ы): Дублированный (Со вставками проф. многоголосого перевода, в расширенные места)
Субтитры: Отсутствуют

Режиссер: Дэвид Туи

rating

В ролях: Вин Дизель, Рада Митчелл, Коул Хаузер, Льюис Фитц-Геральд, Кит Дэвид, Клаудия Блэк, Риана Гриффит, Джон Мур, Саймон Бурк, Лес Чэнтери, Рик Андерсон, Вик Уилсон, Анджела Макин, Питер Чианг, Кен Твохи

Описание: Этим ребятам крупно не повезло: метеоритный дождь повредил их корабль и им пришлось совершить жёсткую посадку на неизвестную планету. Атмосфера была пригодна для дыхания, но три солнца, освещавших её, превратили поверхность в безжизненную пустыню. Они пока не знали, что скоро здесь, посещая планету только один раз в 22 года, наступит ночь!.. А с наступлением этой зловещей ночи им предстоит понять, что случилось с людьми, прежде основавшими здесь базу и что такое настоящий ужас...

Качество: UHD BDRemux 2160p | Dolby Vision TV | Режиссёрская версия
Формат: MP4

Видео: 3840x2160 at 24.000 fps, MPEG-H HEVC HDR, Dolby Vision Video, 68100 kbps avg
Аудио: 48 kHz, AC3, 5.1, 384 Kbps | Дублированный | RUS |
Данный вид релизов (контейнер MP4) предназначен для встроенного в ТВ (соответственно, с поддержкой DV) плеер.
Т.Е. Можно использовать как USB flash/HDD, так и DLNA / Plex - подобные сервисы/программы. дополнительный-внешний плеер не обязателен.

Внимание!
На моделях LG 2016 возможны сюрпризы "через раз", 2017-2018 должно идти без сюрпризов )
скриншот  скриншот  скриншот  скриншот  скриншот  

Общее
Полное имя : C:\Pitch.Black.2000.DC.BDREMUX.2160p.HDR.DV_TV.seleZen.mp4
Формат : MPEG-4
Профиль формата : Base Media / Version 2
Идентификатор кодека : mp42 (mp42/dby1/isom)
Размер файла : 53,5 Гбайт
Продолжительность : 1 ч. 51 м.
Общий поток : 68,5 Мбит/сек
Дата кодирования : UTC 2020-08-17 10:59:12
Дата пометки : UTC 2020-08-17 10:59:12

Видео #1
Идентификатор : 1
Формат : HEVC
Формат/Информация : High Efficiency Video Coding
Идентификатор кодека : hev1
Идентификатор кодека/Информация : High Efficiency Video Coding
Продолжительность : 1 ч. 51 м.
Битрейт : 68,1 Мбит/сек
Ширина : 3840 пикселей
Высота : 2160 пикселей
Соотношение сторон : 16:9
Режим частоты кадров : Постоянный
Частота кадров : 24,000 кадра/сек
Бит/(Пиксели*Кадры) : 0.342
Размер потока : 53,1 Гбайт (99%)
Default : Нет
Дата кодирования : UTC 2020-08-17 10:59:12
Дата пометки : UTC 2020-08-17 10:59:12
Codec configuration box : hvcC

Видео #2
Идентификатор : 2
Формат : HEVC
Формат/Информация : High Efficiency Video Coding
HDR_Format/String : Dolby Vision, Version 1.0, dvhe.07.06, EL+RPU
Идентификатор кодека : dvhe
Идентификатор кодека/Информация : High Efficiency Video Coding with Dolby Vision
Продолжительность : 1 ч. 51 м.
Битрейт : 102 Кбит/сек
Ширина : 1920 пикселей
Высота : 1080 пикселей
Соотношение сторон : 16:9
Режим частоты кадров : Постоянный
Частота кадров : 24,000 кадра/сек
Бит/(Пиксели*Кадры) : 0.002
Размер потока : 81,8 Мбайт (0%)
Default : Нет
Дата кодирования : UTC 2020-08-17 10:59:12
Дата пометки : UTC 2020-08-17 10:59:12
Codec configuration box : hvcC+dvcC

pb.wtf



Скачать Черная дыра через торрент https://d.radikal.ru/d04/2008/de/fe674e480ac8.jpg Скачать фильм Черная дыра через торрент бесплантно в хорошем качестве Описание: Этим ребятам крупно не повезло: метеоритный дождь повредил их корабль и им пришлось совершить жёсткую посадку на неизвестную ... 10 10 5
Info! Золотая раздача, скачанное не засчитывается.
Торрент: Зарегистрирован [2020-08-18 03:48] · скачан: 25 раз
Статус: √ проверено
Размер: 53.51 GB
Как cкачать? Как скачать Черная дыра через торрент | qTorrent

% Раздел Тема Автор DL S | L
Ultra HD (UHD: 2K, 4K, 8K) — видео сверхвысокой чёткости [ 37.26 GB ] Черная дыра / Кромешная тьма / Pitch Black [2000 UHD BDRip 2160p] [Режиссёрская версия] DUB+MVO+2xAVO bober100 Скачать
1 | 0
Ultra HD (UHD: 2K, 4K, 8K) — видео сверхвысокой чёткости [ 62.85 GB ] Черная дыра / Кромешная тьма / Pitch Black [2000 UHD BDRemux 2160p ] [Режиссёрская версия] DUB+MVO+2xAVO bober100 Скачать
3 | 0
Ultra HD (UHD: 2K, 4K, 8K) — видео сверхвысокой чёткости [ 59.49 GB ] Черная дыра / Кромешная тьма / Pitch Black [2000 UHD BDRemux 2160p] [Режиссёрская версия] DUB+MVO+2xAVO bober100 Скачать
1 | 0


Последний раз редактировалось: bober100 (2020-10-06 08:19), всего редактировалось 1 раз

28-11-2019 20:33  

Отключить всю рекламу на сайте

18-08-2020 05:40 Черная дыра Скачать торрент  

Для таких раздач золото нужноpb.wtf



    Дорогой пользователь! Огромная просьба, поблагодарите релизера, оцените раздачу и оставьте свои комментарий, если Вы скачали Черная дыра через торрент бесплатно! Внесите свою лепту в развитие PiratBit!
    Комментировать посты могут только пользователи прошедшие не сложную регистрацию
    Показать сообщения:    

    Черная дыра через торрент
    Скачать бесплатно Черная дыра
    Черная дыра скачать торрент
    Черная дыра смотреть онлайн
    Cкачать фильм Черная дыра бесплатно
    Черная дыра скачать торрент в хорошем качестве
    Черная дыра смотреть онлайн бесплатно в хорошем качестве


    Вы не можете начинать темы
    Вы не можете отвечать на сообщения
    Вы не можете редактировать свои сообщения
    Вы не можете удалять свои сообщения
    Вы не можете голосовать в опросах
    Вы не можете прикреплять файлы к сообщениям
    Вы можете скачивать файлы