Ссылка на приватное зеркало нашего сайта всего за 1$. Внимание количество ограничено!!!

2 сезон

iTunes

1 сезон

1

2 сезон

2 сезон

iTunes

1 сезон

RePack

30

Новинка

ВАЖНО

ИГРА 18+

pack

RePack

MK11
pack

Забери бонус

RePack

jed

!!Акция!!

Alien_Rage

RePack

fifa19

RePack

Assassins Creed: Odyssey

RePack

NEED FOR SPEED™ PAYBACK

4 сезон

9 сезон

Бесстыжие 9 сезон

Все сериалы

все сериалы на PB.wtf

RePack

FAR CRY 5
  

Взрослеть на полную / Отвязная юность / Big Time Adolescence (Джейсон Орли) [2019, Комедия, WEBRip 720p] [MVO] (HDRezka Studio) pb.wtf

Взрослеть на полную через торрент pb.wtf

Размер: 1.84 GB | Добавлен: 3 мес. 8 д. назад | Торрент скачан:63 раза
Скачать  

19-08-2020 06:26 Взрослеть на полную Скачать торрент  

Взрослеть на полную / Отвязная юность / Big Time Adolescence

Год выпуска: 2019
Страна: США
Жанр: Комедия
Продолжительность: 01:31:24
Перевод: Профессиональный (многоголосый закадровый) *HDRezka Studio *- ***Присутствует ненормативная лексика
Субтитры: Русские (форс.)

Режиссер: Джейсон Орли

В ролях: Гриффин Глюк, Сидни Свини, Пит Дэвидсон, Джон Крайер, Машин Ган Келли, Уна Лоуренс, Томас Барбаска, Эмили Эрлук, Бриэль Барбаска, Джулия К. Мёрни

Описание: В 10-летнем возрасте Монро познакомился с Зиком, парнем своей старшей сестры Кейт, который стал для него одновременно лучшим другом и кумиром. Именно с его подачи он впервые прокатился на американских горках, сходил на крутой боевик и увидел фото голой женщины. 6 лет спустя, 23-летний Зик уже давно перестал встречаться с Кейт, бросил колледж, подрабатывает в магазине бытовой техники и торгует травкой вблизи средней школы. Все еще находясь под его влиянием, Монро, учащийся в старшей школе, мечтает понравиться своей однокласснице Софи, поэтому рассчитывает на помощь более опытного приятеля...

rating

Качество: WEBRip 720p
Формат: MKV
Видео: MPEG-4 AVC, 2 387 Кбит/с, 1280x720
Аудио: AC3, 6 ch, 448 Кбит/с
скриншот  скриншот  скриншот  
General
Unique ID : 176320561139079119526748165568868943749 (0x84A61AD7820D087D85CC94F848748785)
Complete name : G:\Big.Time.Adolescence.2019.WEBRip.720p.rus.5.1.HDREZKA.STUDIO.mkv
Format : Matroska
Format version : Version 4
File size : 1.84 GiB
Duration : 1 h 31 min
Overall bit rate mode : Variable
Overall bit rate : 2 892 kb/s
Encoded date : UTC 2020-08-19 01:37:34
Writing application : mkvmerge v28.2.0 ('The Awakening') 64-bit
Writing library : libebml v1.3.6 + libmatroska v1.4.9

Video
ID : 1
Format : AVC
Format/Info : Advanced Video Codec
Format profile : High@L4.1
Format settings : CABAC / 1 Ref Frames
Format settings, CABAC : Yes
Format settings, Reference : 1 frame
Codec ID : V_MPEG4/ISO/AVC
Duration : 1 h 31 min
Bit rate mode : Variable
Bit rate : 2 387 kb/s
Maximum bit rate : 2 000 kb/s
Width : 1 280 pixels
Height : 720 pixels
Display aspect ratio : 16:9
Frame rate mode : Constant
Frame rate : 24.000 FPS
Color space : YUV
Chroma subsampling : 4:2:0
Bit depth : 8 bits
Scan type : Progressive
Bits/(Pixel*Frame) : 0.108
Stream size : 1.52 GiB (83%)
Default : Yes
Forced : No
Duration_Source : General_Duration

Audio
ID : 2
Format : AC-3
Format/Info : Audio Coding 3
Commercial name : Dolby Digital
Codec ID : A_AC3
Duration : 1 h 31 min
Bit rate mode : Constant
Bit rate : 448 kb/s
Channel(s) : 6 channels
Channel layout : L R C LFE Ls Rs
Sampling rate : 48.0 kHz
Frame rate : 31.250 FPS (1536 SPF)
Compression mode : Lossy
Stream size : 292 MiB (15%)
Language : Russian
Service kind : Complete Main
Default : Yes
Forced : No
Duration_Source : General_Duration

Text
ID : 3
Format : UTF-8
Codec ID : S_TEXT/UTF8
Codec ID/Info : UTF-8 Plain Text
Language : Russian
Default : No
Forced : No

pb.wtf



Скачать Взрослеть на полную через торрент https://i112.fastpic.ru/big/2020/0819/62/a2e94578f6dabf206ee6f22116ae2f62.jpeg Скачать фильм Взрослеть на полную через торрент бесплантно в хорошем качестве Описание: В 10-летнем возрасте Монро познакомился с Зиком, парнем своей старшей сестры Кейт, который стал для него одновременно лучшим ... 10 10 3
Торрент: Зарегистрирован [2020-08-19 06:26] · скачан: 63 раз
Статус: √ проверено
Размер: 1.84 GB
Как cкачать? Как скачать Взрослеть на полную через торрент | qTorrent

% Раздел Тема Автор DL S | L
Фильмы 2019-2020 [DVDrip, WEB-DLRip, HDrip] (DUB, MVO) [ 1.4 GB ] Взрослеть на полную / Отвязная юность / Big Time Adolescence [2019 WEB-DLRip-AVC] [MVO] [HDRezka Studio] от wolf1245_MediaBit Lithuania Скачать
3 | 0
Фильмы 2019-2020 [DVDrip, WEB-DLRip, HDrip] (DUB, MVO) [ 1.45 GB ] Взрослеть на полную / Отвязная юность / Big Time Adolescence [2019 WEB-DLRip] MVO [HDRezka Studio] {RUS}RAMBO Скачать
1 | 0
Фильмы (WEB-DL 720p, 1080p) [ 2.87 GB ] Взрослеть на полную / Отвязная юность / Big Time Adolescence [2019 WEB-DL 1080p] [MVO] killermax2013 Скачать
2 | 0

28-11-2019 20:33  

Отключить всю рекламу на сайте

    Дорогой пользователь! Огромная просьба, поблагодарите релизера, оцените раздачу и оставьте свои комментарий, если Вы скачали Взрослеть на полную через торрент бесплатно! Внесите свою лепту в развитие PiratBit!
    Комментировать посты могут только пользователи прошедшие не сложную регистрацию
    Показать сообщения:    

    Взрослеть на полную через торрент
    Скачать бесплатно Взрослеть на полную
    Взрослеть на полную скачать торрент
    Взрослеть на полную смотреть онлайн
    Cкачать фильм Взрослеть на полную бесплатно
    Взрослеть на полную скачать торрент в хорошем качестве
    Взрослеть на полную смотреть онлайн бесплатно в хорошем качестве


    Вы не можете начинать темы
    Вы не можете отвечать на сообщения
    Вы не можете редактировать свои сообщения
    Вы не можете удалять свои сообщения
    Вы не можете голосовать в опросах
    Вы не можете прикреплять файлы к сообщениям
    Вы можете скачивать файлы